Subscribe: ++Svart Kveld++
http://svartkveld.blogspot.com/feeds/posts/default
Added By: Feedage Forager Feedage Grade B rated
Language: English
Tags:
country origin  country  current lineup  current  date  download  guitars  label  lineup  metallyrical themes  themes  total download 
Rate this Feed
Rate this feedRate this feedRate this feedRate this feedRate this feed
Rate this feed 1 starRate this feed 2 starRate this feed 3 starRate this feed 4 starRate this feed 5 star

Comments (0)

Feed Details and Statistics Feed Statistics
Preview: ++Svart Kveld++

Svart Kveld





Updated: 2016-10-17T11:19:39.920+02:00

 



Ex Deo - Caligvla (2012)

2012-09-24T19:23:08.968+02:00


Country of origin: Canada
Genre: Symphonic Death Metal
Lyrical themes: Roman history/mythology
Current label: Napalm Records
Release date: August 29th, 2012
Current lineup:
Dano Apekian - Bass
Stéphane Barbe - Guitars
Jean-François Dagenais - Guitars
Max Duhamel - Drums
Maurizio Iacono - Vocals

Tracklist:
1. I, Caligvla 04:49
2. The Tiberius Cliff (Exile to Capri) 05:38
3. Per Oculos Aquila 04:20
4. Divide Et Impera 05:01
5. Pollice Verso (Damnatio Ad Bestia) 05:15
6. Burned to Serve as Nocturnal Light (Bonus Track) 04:35
7. Teutoburg (Ambush of Varus) 05:16
8. Along the Appian Way 05:38
9. Once Were Romans 05:19
10. Evocatio: the Temple of Castor & Pollux 03:38
Total: 49:29





Wodensthrone – Curse (2012)

2012-05-09T21:24:26.271+02:00

Country of origin: United KingdomGenre: Black MetalLyrical themes: Nature, Ancient Britain, HeathenismCurrent label: Candlelight RecordsRelease date: April 23rd, 2012Current lineup: Gerádwine - BassHréowsian - Drums, PercussionWildeþrýð - Guitars, VocalsRædwalh - Guitars, VocalsÁrfæst - KeyboardsTracklist: 1. The Remaining Few 00:39 2. Jormungandr 07:00 3. First Light 10:58 4. The Great Darkness 07:57 5. Battle Lines 11:23 6. Wyrgthu 09:28 7. The Storm 05:58 8. The Name of the Wind 13:28 Total:     01:06:51320 kbps MP3DOWNLOAD HellshareDOWNLOAD FileServeFLACDOWNLOAD HellshareDOWNLOAD FileServe[...]



Eternal Helcaraxe – Against All Odds (2012)

2012-05-09T20:00:41.384+02:00



Country of origin: Ireland
Genre: Black Metal
Lyrical themes: Paganism/Mythology
Current label: Abyss Records
Release date: April 27th, 2012
Current lineup: 
Thule - Bass, Vocals
Tyrith - Drums
Praetorian - Drums, Guitars, Keyboards, Vocals
Maulgrim - Guitars, Backing Vocals

Tracklist: 
1. Claim Your Place With the Gods 02:22
2. One Stands Still Here 05:36
3. Invictus 07:06
4. We Assist Death 06:23
5. Shadow of the Wolf 04:04
6. As the Snow Gathers 07:32
7. Echoes through Our Blood 06:18
8. Against All Odds (All the Battles to Come - Part II) 11:03
Total:     50:24





Outlying – Scars Of Daylight (2012)

2012-05-08T22:08:58.378+02:00



Country of origin: Canada
Genre: Thrash/Black Metal
Lyrical themes: N/A
Current label: Self-released/independent
Release date: 2012
Current lineup: 
 N/A
Tracklist: 
 1. Code 903 (Intro)   
2. Forgotten Instinct  
3. The Sleepwalker  
4. Breed of Worms  
5. Corruptive Agent  
6. The Last Time  
7. Ephemeral  
8. Lucid Immorality  
9. Sailing on the Seas of Emptines
10. Cult of Dysphoria




Ne Obliviscaris - Portal Of I (2012)

2012-05-08T22:02:17.171+02:00



Country of origin: Australia
Genre: Progressive Black/Melodic Extreme Metal
Lyrical themes: Life and Death
Current label: Welkin Records
Release date: May 7th, 2012
Current lineup: 
Brendan "Cygnus" Brown - Bass 
Daniel "Mortuary" Presland - Drums 
Matt Klavins - Guitars 
Benjamin Baret - Guitars (lead) 
Tim Charles - Violin, Vocals (clean) 
Xenoyr - Vocals (lead)
Tracklist: 
1. Tapestry of the Starless Abstract 12:01
2. Xenoflux 10:01
3. Of the Leper Butterflies 05:52
4. Forget Not 12:04
5. And Plague Flowers the Kaleidoscope 11:35
6. As Icicles Fall 09:24
7. Of Petrichor Weaves Black Noise 10:43
Total:     01:11:40




Burzum - Umskiptar (2012)

2012-04-28T09:42:14.484+02:00



Country of origin: Norway
Genre: Black Metal, Ambient
Lyrical themes: Myths, Folklore, Odalism, Darkness, Philosophy
Current label: Byelobog Productions
Release date: May 21st, 2012
Current lineup:
Varg Vikernes - All Instruments, Vocals (1991-present)
Tracklist:
1. Blóðstokkinn 01:16
2. Jóln 05:51
3. Alfadanz 09:22
4. Hit helga Tré 06:51
5. Æra 03:58
6. Heiðr 03:02
7. Valgaldr 08:03
8. Galgviðr 07:16
9. Surtr Sunnan 04:14
10. Gullaldr 10:20
11. Níðhöggr 05:00
Total: 01:05:13

DOWNLOAD



Hollenthon - Live At Szene, Vienna (04.12.2011 - 720p)

2012-04-28T12:43:28.873+02:00

Country of origin: AustriaGenre: Symphonic/Orchestral/Folk/Melodic Death MetalLyrical themes: Medieval TalesCurrent label: Napalm RecordsRelease date: 2012Current lineup: Martin Schirenc - Bass (1994-2007), Vocals, Guitars, Keyboards (1994-present) Mike Gröger - Drums (1994-present) Elena Schirenc - Vocals (female) (1999-present) Martin Arzberger - Guitars (2007-present) Max Reif - Bass (2010-present)Tracklist: 01. Tyrans And Wraiths02. Woe To The Defeated 03. On The Wings Of A Dove 04. To Fabled Lands05. To Kingdom Come06. Homage 07. Son Of Perdition08. Innocent Sin09. Deathly Dirges10. Once We Were King11. Fire Upon The Blade12. Ars Moriendi13. Y Draig Goch14. ConspiratorTotal 1:18:49Media info:GeneralFormat : MatroskaFile size : 4.24 GiBDuration : 1h 18mnOverall bit rate : 7 697 KbpsVideoDuration : 1h 18mnBit rate : 7 096 KbpsWidth : 1 280 pixelsHeight : 720 pixelsDisplay aspect ratio : 16:9Frame rate : 25.000 fpsBit depth : 8 bitsScan type : ProgressiveStream size : 3.91 GiB (92%)Writing library : x264 coreAudioFormat : AC-3Duration : 1h 18mnBit rate mode : ConstantBit rate : 448 KbpsChannel(s) : 6 channelsChannel positions : Front: L C R, Side: L R, LFESampling rate : 48.0 KHzBit depth : 16 bitsCompression mode : LossyStream size : 253 MiB (6%)Sample: allowfullscreen="" frameborder="0" height="259" src="http://www.youtube.com/embed/M3o7PhfsljQ?rel=0" width="450">DOWNLOAD part1DOWNLOAD part2DOWNLOAD part3[...]



Master's Hammer - Vracejte konve na místo (2012)

2012-02-21T18:33:56.064+01:00

(image)

Country of origin: Czech Republic
Genre: Black Metal, Experimental
Lyrical themes: Occultism, Spiritism, Czech traditions
Current label: Self-released/independent
Release date: February 8th, 2012
Current lineup:
Necrocock - Vocals, Guitars
František Štorm - Vocals, Guitars, Bass, Synth
Jan Kapák - Drums
Tracklist:
1. Nordfrostkrampfland 04:18
2. Šumava 04:59
3. Ve Víchru Nicoty 03:54
4. Námořnická 03:22
5. Podejte Mi Samopal 02:41
6. Dreaming Bulldog (Intermezzo) 01:27
7. Vracejte Konve na Místo 03:37
8. Lovecraft 04:16
9. Flammarion 04:48
10. Lingam A Mikve 02:50
11. Pantheismus Dobra 03:59
12. Flammarion Fatal Mix 04:19
Total 44:30




Sear Bliss - Eternal Recurrence (2012)

2012-01-27T22:20:55.609+01:00

(image)

Country of origin: Hungary
Genre: Atmospheric Black Metal
Lyrical themes: Hatred, evil, melancholy, cosmic themes
Current label: Candlelight Records
Release date: January 23rd, 2012
Current lineup:
Csaba Csejtey - Guitars
János Barbarics - Guitars
András Nagy - Vocals, Bass, Keyboards
Olivér Ziskó - Drums
Balázs Bruszel - Trumpets, Keyboards
Tracklist:
1. The Eternal Quest 05:47
2. Ballad of the Shipwrecked 05:22
3. Great Cosmic Disorder 05:59
4. A Lost Cause 04:39
5. The New Era of Darkness 04:32
6. There's No Shadow Without Light 04:35
7. Entering the Seventh Gate 06:43
Total 37:37




Alcest - Les Voyages De L'Âme (2012)

2012-01-16T21:53:02.832+01:00

(image)

Country of origin: France
Genre: Black Metal/Shoegaze
Lyrical themes: Melancholy, Nostalgia, Beauty
Current label: Prophecy Productions
Release date: January 6th, 2012
Current lineup:
Neige - Vocals, Guitars, Bass, Keyboards
Winterhalter - Drums
Tracklist:
1. Autre Temps 05:50
2. Là Où Naissent les Couleurs Nouvelles 08:50
3. Les Voyages de l'Âme 07:00
4. Nous Sommes l'Emeraude 04:20
5. Beings of Light 06:11
6. Faiseurs de Mondes 07:57
7. Havens 02:11
8. Summer's Glory 08:05
Total: 50:24

MP3 320kbps

FLAC



Eluveitie - Helvetios (2012)

2012-01-16T20:56:55.151+01:00

Country of origin: SwitzerlandGenre: Folk/Melodic Death MetalLyrical themes: Celtic/Helvetian HistoryCurrent label: Nuclear BlastRelease date: February 10th, 2012Current lineup: Chrigel Glanzmann - Vocals, Acoustic guitars, Mandolin, Uilleann pipes, Bodhrán, Tin and low whistles, Gaita Meri Tadic - Fiddle, Vocals Merlin Sutter - Drums Ivo Henzi - Guitars Sime Koch - Guitars, Vocals Anna Murphy - Hurdy gurdy, Vocals Päde Kistler - Bagpipes, Whistles Kay Brem - BassTracklist: 1. Prologue 01:25 2. Helvetios 04:01 3. Luxtos 03:55 4. Home 05:17 5. Santonian Shores 03:56 6. Scorched Earth 04:16 7. Meet the Enemy 03:478. Neverland 03:43 9. A Rose For Epona 04:2710. Havoc 04:05 11. The Uprising 03:42 12. Hope 02:27 13. The Siege 02:45 14. Alesia 03:56 15. Tullianum 00:24 16. Uxellodunon 03:52 17. Epilogue 03:14Total: 59:12DOWNLOAD[...]



Gorgoroth - Under The Sign Of Hell 2011 (2011)

2011-12-11T17:28:56.097+01:00

(image)


Country of origin: Norway
Genre: Black Metal
Lyrical themes: Satanism, Anti-Christianity, War, Darkness
Current label: Regain Records
Release date: December 5th, 2011
Current lineup:
Infernus - Guitars, Bass
Pest - Vocals
Tomas Asklund - Drums
Tracklist:
1. Revelation of Doom 03:00
2. Krig 02:35
3. Funeral Procession 02:58
4. Profetens Åpenbaring 04:26
5. Ødeleggelse og Undergang 04:15
6. Blood Stains the Circle 02:41
7. The Rite of Infernal Invocation 03:16
8. The Devil Is Calling 03:01
Total: 26:12




Heiden - Dolores (2011)

2011-11-25T22:43:20.928+01:00

(image)
Country of origin: Czech Republic
Genre: Black Metal
Lyrical themes: Inner space, Nature, Celtic mythology
Current label: Naga Productions
Release date: November 1st, 2011
Current lineup:
Magua - Bass
Einsk - Drums
Varnag - Guitars
Kverd - Guitars, Vocals
Tracklist:
1. Tmář 04:58
2. Pábení 04:36
3. Na břehu 03:49
4. Dnešní noc je žena 05:06
5. Má euforie 05:10
6. Antisentiment 03:36
7. Dolores 04:36
8. Živý? 05:37
Total: 37:28




Crom - Of Love And Death (2011)

2011-11-25T22:50:49.860+01:00

(image)

Country of origin: Germany
Genre: Viking / Epic
Lyrical themes: Epic Battles, Despair
Current label: Self-released/independent
Release date: November 25th, 2011
Current lineup:
Walter "Crom" Grosse - Vocals, all instruments
Tracklist:
1. Reason to Live
2. Lifetime - The Fallen Beauty Part II
3. Just One Blink
4. My Song for All the Broken Hearts
5. My Destiny
6. This Dying World
7. Eternal Dreaming
8. The Fallen Beauty (Bonus Track)




Leviathan - True Traitor True Whore (2011)

2011-11-11T07:43:35.807+01:00

(image)
Country of origin: United States
Genre: Black Metal / Ambient
Lyrical themes: Satanism, Darkness, Suicide, Occultism, Life, Pain
Current label: Profound Lore Records
Release date: November 8th, 2011
Current lineup:
Wrest - All Instruments, Vocals
Tracklist:
1. True Whorror 05:38
2. Her Circle Is the Noose 04:20
3. Brought up to the Bottom 05:03
4. Contrary Pulse 05:42
5. Shed This Skin 05:43
6. Every Orifice Yawning Her Price 07:07
7. Harlot Rises 07:01
8. Blood Red and True 06:57
Total: 47:31




Dimmu Borgir - Forces of the Northern Night (2011 - HD 1080i)

2011-11-06T19:44:09.247+01:00

(image) (image)

General:
Format : Matroska
File size : 4.08 GiB
Duration : 57mn 32s
Overall bit rate : 10.2 Mbps

Video:
Bit rate : 9 320 Kbps
Maximum bit rate : 14.3 Mbps
Width : 1 920 pixels
Height : 1 082 pixels
Display aspect ratio : 16:9
Frame rate : 25.000 fps
Scan type : Progressive
Stream size : 3.75 GiB (92%)

Audio:
Format : AC-3
Duration : 57mn 32s
Bit rate : 640 Kbps
Channel(s) : 6 channels
Stream size : 263 MiB (6%)
Language : Norway/English




Norz Feuer - Devers Septentrion (2011)

2011-10-20T21:32:08.128+02:00

Country of origin: France Genre: Black Metal Lyrical themes: N/A Current label: Self-released/independent Release date: 2011 Current lineup: N/A Tracklist: 1. Intro - Fiefz et Terroirs de Nagaire 1:302. Day of Reprisal, Ride of Anger, Call of Death 4:253. Strong and Trustworthy Complaint of Ravens Forewarning the Guardians of Our Memory 7:144. Great Sails of Wind and Might Emerging from a Blizzard Sea 5:315. Worshiping and Remembrance for the Great Crossing of Northern Tribes 3:566. Hearing the Deep Breath of Ancient Forests of Wisdom Engulfing Dark Skies of Hope 6:127. Deafening Cries of Forefathers Upon Tortuous Paths of Destiny 5:288. Of Wrath and Vengeance of Our Fierce Celtic Tribes Against Weakness and Dishonor of Ancestral Foes 3:589. Outro - Devers Septentrion Seoit 2:28Total: 40:42:00 DOWNLOAD[...]



Thulcandra - Under a Frozen Sun (2011)

2011-10-20T21:09:21.307+02:00

Country of origin: Germany Genre: Black/Death Metal Lyrical themes: Death, Darkness Current label: Napalm Records Release date: September 30th, 2011 Current lineup: Tobias Ludwig - Bass Steffen Kummerer - Guitars, Vocals Sebastian Ludwig - Guitars Tracklist: 1. In Blood and Fire 8:352. Black Flags of Hate 3:273. Ritual of Sight 5:524. Under a Frozen Sun 5:045. Aeon of Darkness 5:076. Echoing Voices (A Cold Breeze of Death) 3:517. Gates of Eden 9:248. Life Demise (Unanimated cover) 4:07Total: 45:27:00 DOWNLOAD[...]



Raate - Menetyksen Tie (2011)

2011-10-20T21:08:16.400+02:00

(image)

Country of origin: Finland
Genre: Black Metal
Lyrical themes: Medieval Times, Pillage, Death
Current label: Spinefarm Records
Release date: October 19th, 2011
Current lineup:
N/A
Tracklist:
1. Horisontti
2. Sameaa Vettä
3. Tulen Laulu
4. Taival
5. Kylmä Tie
6. Ajan Temppeli I-IV




Myrkgrav & Voluspaa - Sjuguttmyra (Split - 2011)

2011-10-17T20:03:21.357+02:00

(image)
Country of origin: Norway
Genre: Blackened Folk/Viking Metal
Lyrical themes: Local History, Folk Tales
Current label: Einheit Produktionen
Release date: April 29th, 2011
Current lineup:
Lars "Leiðólfr" Jensen (Myrkgrav) - Vocals, Guitars, Drums, Keyboards, Bass, Flute
Freddy Skogstad (Voluspaa) - Vocals, All instruments
Tracklist:
1. Myrkgrav - Sjuguttmyra 04:16
2. Voluspaa - Ferden Går Videre 05:32
Total: 09:48

DOWNLOAD



Oakhelm - Echtra (2011)

2011-10-17T20:04:45.999+02:00

(image)
Country of origin: United States
Genre: Pagan Folk Black Metal
Lyrical themes: Celtic Mysticism and Paganism, Viking Conquests
Current label: Forest Moon Special Products
Release date: August 23rd, 2011
Current lineup:
Pete Jay - Bass, Vocals
Elias Bloch - Drums
Kody Keyworth - Guitars
Donald Stanley - Guitars, Accordion
Tracklist:
1. Into the Unknown Wilderness 11:10
2. The Way of Bleeding Bark 07:30
3. Children of the Glade 06:35
4. Lady of Three Faces 08:52
5. Echtra 04:03
Total: 38:10

DOWNLOAD



Sólstafir - Svartir Sandar (2CD - 2011)

2011-10-16T14:48:06.195+02:00

Country of origin: IcelandGenre: Psychedelic Rock/MetalLyrical themes: Depression, emotionsCurrent label: Season of MistRelease date: October 14th, 2011Current lineup:Svavar Austman - Bass Guðmundur Óli Pálmason - Drums Sæþór Maríus Sæþórsson - Guitars Aðalbjörn Tryggvason - Guitars, VocalsTracklist:Disc 11. Ljós í Stormi 11:35 2. Fjara 06:39 3. Þín Orð 06:20 4. Sjúki Skugginn 05:07 5. Æra 04:53 6. Kukl 05:08 Total: 39:42 Disc 21. Melrakkablús 09:58 2. Draumfari 03:40 3. Stinningskaldi 01:15 4. Stormfari 03:37 5. Svartir Sandar 08:21 6. Djákninn 10:51 Total: 37:42DOWNLOAD[...]



Abbey ov Thelema - A Fragment ov the Great Work (2011)

2011-10-14T21:28:14.979+02:00

(image)
Country of Origin: Slovakia
Genre: avantgarde black metal, atmospheric, experimental
Lyrical Themes: Philosophical
Current label: Sonic Temple Records
Release Date: 17th October 2011
Current lineup:
Delgrast - keyboard, vocals, programming
Vilozof - guitars, vocals, programming
Tracklist:
The Left-Hand Path [1:57]
The One Who Walks the Left-Hand Path [5:06]
Unearthly Theophagia ov a Nonexistent Deity [8:33]
Black Absinth Drunk While Analyzing the Writings ov Nietzsche [6:42]
The Hidden Wisdom & Clandestine Legacy ov the Black Arts [4:52]
8th April 1904 - The Day ov Nuit [6:50]
9th April 1904 - The Day ov Hadit [5:17]
10th April 1904 - The Day ov Ra-Hoor-Khuit [4:56]
Total playing time: 44:13

Band's official site and CDs order:

Buy it, if you like it!




Tsjuder - Legion Helvete (2011)

2011-10-14T22:04:00.763+02:00

Country of origin: NorwayGenre: Black MetalLyrical themes: Satanism, Anti-Christianity, Darkness, BlasphemyCurrent label: Season of MistRelease date: October 14th, 2011Current lineup:Nag - Vocals, Bass Draugluin - Guitars AntiChristian - DrumsTracklist:1. The Daemon Throne 03:40 2. Fra en Råtten Kiste 05:19 3. Dauðir 03:37 4. Voldsherskeren 04:49 5. Slakt 03:47 6. Black Shadows of Hell 03:29 7. Blod og Aske 04:59 8. Vårt Helvete 10:14 Total: 39:54DOWNLOAD[...]



Taake - Noregs Vaapen (2011)

2011-09-20T17:03:04.872+02:00


Country of origin: Norway
Genre:
Black Metal
Lyrical themes:
Darkness, Death, Autumn, Winter, Hell, Pain, Devil
Current label:
Dark Essence Records
Release date:
September 19th, 2011
Current lineup:
Hoest - Vocals, All Instruments
Tracklist:
1. Fra vadested til vaandesmed 06:47
2. Orkan 06:17
3. Nordbundet 05:25
4. Du ville ville Vestland 06:51
5. Myr 05:35
6. Helvetesmakt 05:37
7. Dei vil alltid klaga og kyta 10:16
Total 46:48

DOWNLOAD