Subscribe: bt.etree.org
http://bt.etree.org/rss/bt_etree_org.rdf
Added By: Feedage Forager Feedage Grade B rated
Language: English
Tags:
band  banter  bit  cxx wav  flac flac  flac  kdtu wav  kdtu  set  track  transfer  wav cxx  wav kdtu  wav wav  wav 
Rate this Feed
Rate this feedRate this feedRate this feedRate this feedRate this feed
Rate this feed 1 starRate this feed 2 starRate this feed 3 starRate this feed 4 starRate this feed 5 star

Comments (0)

Feed Details and Statistics Feed Statistics
Preview: bt.etree.org

bt.etree.org



etree.org BitTorrent Tracker



Published: 2016-09-27T17:45:01

Last Build Date: 2016-09-27T17:45:01

Copyright: Copyright 2013, etree.org
 



Brian Thomas / Alex Lee-Clark Big Band 2016-09-22 Ryles Jazz Club - Cambridge, MA -dpa4023>V3>R44/sbd -flac2448

2016-09-27T15:53:45

Brian Thomas / Alex Lee-Clark Big Band
Thu. September 22, 2016
Ryles Jazz Club
Cambridge, MA


source1: dpa 4023 > Lunatec V3 > Edirol R-44 > WAV (24/48k)
source2: sbd > Sony D50 > WAV (24/48k)
transfer: wav > Audacity > wav (24/48k) > xACT > flac8

tape/transfer - corey the groundhog (coreythegroundhogATgmailDOTcom)



set one (71:56)

01. Leo’s Ladder
02. Subterranean Homebody
03. banter
04. 21st Century Traveler
05. Jammer Time
06. banter
07. New Days Ahead
08. banter
09. Keep At It


set two (63:17)

01. Damn Right, I Am Somebody
02. Heeding Uncle Bob’s Advice
03. banter
04. Crawlin’
05. banter
06. Shooting The Shit



Saxes
Pete Levesque - Alto
Rick Stone - Alto
Mike Tucker - Tenor
Tucker Antell - Tenor & Flute
Ben Whiting - Baritone

Bones
Ben Griffin
Brian Thomas
Clayton DeWalt
Angel Subero - Bass

Trumpets
Yaure Muniz
Alex Lee-Clark
Doug Olsen
Trent Austin

Rhythm
Jeffrey Lockhart - Guitar
Steve Fell - Guitar
Sam Gilman - Organ
Ted Sullivan - Drums


http://www.btalc.com
https://www.facebook.com/BrianThomasAlexLeeClarkBigBand/
http://www.brianthomasgroup.com
http://alexleeclark.com


Media Files:
http://bt.etree.org/download.php/588968/btalcbigband2016-09-22mtx2448.torrent




Les Claypool's Fearless Flying Frog Brigade - 2002-06-21 Manchester, TN (KM140) [16441] **NEW SOURCE TO CIRCULATION**

2016-09-27T15:17:22

LES CLAYPOOL’S FEARLESS FLYING FROG BRIGADE



June 21, 2002
Bonnaroo Main Stage
Manchester, Tennessee



Source: Neumann KM140 (ORTF) > V2 > SBM1 > D8 @ 16/441
Transfer: DAT/m > Tascam DA-20 MKII > SPDIF > MacMini(Audacity) > xACT(FLAC/TAG)
Taper: Matt “Lazy Lightning” Lazor
Transfer: DiGiHoArDeRs 9/27/16




Thela Hun Ginjeet
David Makalaster
Ding Dang
Shine On You Crazy Diamond* >
Long in the Tooth
Hendershot^
Highball with the Devil >
Dueling Drums >
Locomotive Breath
Whamola




* - with Warren Haynes
^ - with Dirty Dozen Brass Band horn players



Les Claypool - Bass
Eenor - Guitar
Skerik - Saxaphone
Mike Dillon - Percussion
Tim Alexander - Drum


Media Files:
http://bt.etree.org/download.php/588967/Les Claypools Fearless Flying Frog Brigade - 2002-06-21 Manchester, TN (KM140) [16441].torrent




David Crosby & Graham Nash 1986-12-03 Westbury Music Fair

2016-09-27T13:53:49

-excellent recording-

David Crosby & Graham Nash

Westbury Music Fair
Westbury, NY
12-3-1986


Taped and Transfered by: gdplusmore@aol.com

Section: D
Row: P
Seat: 20
Hand Held on a T-Bar
Nakamichi 300's CP1's & Sony TCD5M
Maxell MX90 x 2

Master Casssette Transfer : Nakamichi BX300-> Macintosh ->Peak Bias->JAM->cdr->EAC->MKW->shn
Sector boundaries verrified via shn tools.


Set List

Disc1

1. Military Madness
2. Wasted On The Way
3.. Lee Shore
4. Southbound Train
5. Almost Cut My Hair
6. I Used To Be A King
7. Carry Me * tape flip
8. Wind On The Water
9. Right Between The Eyes
10. Try To Find Me
11. Delta
12. Compass
13. Guinnevere * tape change

Disc 2

1. Long Time Gone
2. Just A Song Before I Go
3. Wooden Ships
4. Our House
5. Teach Your Children


Media Files:
http://bt.etree.org/download.php/588966/CrosbyNash12-3-86_Nak300's_sbeok_shnf.torrent




Phish 07-18-03

2016-09-27T07:55:50

Phish
07.18.2003
Alpine Valley, East Troy, WI


source: mg300>minime>wavelab (16/48 picturebook)
taped and seeded by steve szaks (WWW.PHATDATS.COM)


Disc one / Set one:
1. Axilla I
2. Rift
3. Bathtub Gin>
4. The Mango Song
5. Roggae
6. Discern
7. I Didn't Know>*
8. Dust in the Wind>**
9. I Didn't Know
10. David Bowie

Disc two / Set two:
1. Down with Disease>
2. Catapult
3. Bug
4. Secret Smile
5. Two Versions of Me
6. Twist
7. Character Zero

Disc three / set two (con't)
1. Harry Hood

* w/ vaccum solo
** first time played, w/vaccum solo
seeded to etree via WWW.PHATDATS.COM on 07.26.03
special thanks to jordan nadler for the help!!


Media Files:
http://bt.etree.org/download.php/588964/ph2003-07-18.shnf.torrent




Pink Talking Fish / Pink Talking Fu - Catskill Chill Music Festival, Lakewood, PA 2016-09-23 Schoeps MK41v's/Soundboard

2016-09-26T16:01:00

Pink Talking Fish/Pink Talking Fu
Catskill Chill Music Festivsl
Lakewood, PA
September 23, 2016
www.pinktalkingfish.com
www.kungfumusic.com


Schoeps MK41V's>KCY 250/05i>VST62iu (@ Soundboard) + Soundboard>Sound Devices 744t
SD744t>Nuendo 4 (mix)>Sound Forge Pro 11 (Fades,iZotope 64 Bit SRC/iZotope MBIT+ Bit depth conversion to 16 Bit/44.1khz)>CDWAV(Tracking)>Trader's Little Helper (FLAC)

Mixed & Recorded By Keith Litzenberger


Set List:

01 Llama>
02 In The Flesh>
03 Thank You For Sending Me An Angel
04 Moma Dance>
05 Fearless>
06 Bug*>
07 Psycho Killer>
08 David Bowie>
09 Shine On You Crazy Diamond>
10 David Bowie
11 Girlfriend Is Better
12 Great Gig In The Sky**%>
13 Crosseyed And Painless**

*ending vocals and solo only
**w/ Tim Palmieri on guitar
% Tim played the vocal solo on his guitar@


PINK TALKING FU: PRINCE/BOWIE - All members of Pink Talking Fish & Kung Fu performing the music of Prince & David Bowie

Set List:

01 Musicology
02 Fame>
03 1999
04 Golden Years>
05 Take Me With You
06 Under Pressure*
07 Let's Go Crazy
08 Let's Dance
09 I Wanna Be Your Lover%>
10 Space Oddity
11 Purple Rain*%>
12 Memory Of A Free Festival*%

*w/ Hayley Jane on vocals %w/ Shira Elias on vocals


Media Files:
http://bt.etree.org/download.php/588962/ptf2016-09-23.schoepsMK41v.sbd.flac16.torrent




Railroad Earth-2016-09-25, Town Ballroom, Buffalo, NY

2016-09-26T14:52:24

Railroad Earth
2016-09-25
Town Ballroom, Buffalo, NY

Source:
Microphones-Sennheiser's-421 at 9 feet Second Tier aimed dead center
Deck-Zoom-f8 setting's 24/96

Transfer info:
tracking-CD Wave
TLH- Flac-8/MD5/ CKSUM

Setlist : Thanks Mike Hard Copy/ Phil at Earthboard
There is a minor opps second set track 9 & 10 Butterfly and the tree are split lost maybe 3 seconds
Set : 1
1 Head
2 Sing for Me
3 When the Sun Gets in Your Blood
4 Crossing the Gap
5 Carrying Coal to Newcastle
6 Grandfather Mountain
7 The Hunting Song
Set 2:
1 Long way to Go
2 Shockenaw Mountain Breakdown
3 Bringing my Baby Back Home
4 A day in The Sand
5 Lois Ann
6 The Good Life
7 Mourning flies
8 Birds of America
9-10 Butterfly and the Tree
11 Take a Bow
12- Encore
Water Fountain Quicksand

All Done By Hal Francis (aka)- Homegrn

Notes : Small Crowd Bills Homegame
this is the only post of show as the other tapers mic pre amp died during second set
id like to thank the band for allowing us to tape, and the Town Ballroom Staff
as allows support live music BUY there Merch
and of course you cant repost MP3 or burn this to disc
I will post Scott Pemberton Trio Later Today
setlist help of his set would be Great Yeah They Rock


Media Files:
http://bt.etree.org/download.php/588961/RRE-2016-09-25-Town Ballroom-Buffalo.torrent




moe. - 2002-09-01 Turing, NY-moe.down (KM140) [16441] **FRESH TRANSFER**

2016-09-26T14:42:00

moe.


September 1, 2002
Snow Ridge Ski Area
Turin, New York



Source: FOB Neumann KM140 (ORTF) > V2 > SBM1 > D8
Transfer: DAT/m > Tascam DA-20 MKII > SPDIF > MacMini(Audacity) > xACT(FLAC/TAG)
Taper: Matt “Lazy Lightning” Lazor
Transfer: DiGiHoArDeRs 9/25/16



SET ONE
01. Head
02. Nebraska
03. It
04. Cornflake Girl >
05. Happy Hour Hero
06. Moth >
07. moe.Galactic Jam >
08. Moth


SET TWO
09. Opium >
10. Rebubula
11. Rise
12. Plane Crash
ENCORE
13. Don't Fuck With Flo
14. Bodhisattva


Media Files:
http://bt.etree.org/download.php/588960/moe2002-09-01 Turin, NY (KM140) [16441].torrent




Poor Man’s Whiskey 2016-09-25 Tyrone Farm Pomfret CT Samson CO2 + SBD > Tascam DR-680 MKI (16/44.1)

2016-09-26T14:10:24

Poor Man’s Whiskey
2016-09-25
Tyrone Farm
Pomfret CT



Samson CO2 + SBD > Tascam DR-680 MKI (16/44.1) > SDHC > MacBook Pro > Adobe Audition > Flac > xAct
Recorded & Mastered By Scott Medeiros


Set One:

01 Introduction —> *
02 Tall Western Cedar *
03 Snow In Tahoe *
04 Samsonite Sonoma Champion Banter
05 Train To California
06 Wyoming
07 Banter
08 Let’s Go Out Tonight
09 Angeline
10 Sierra Girl
11 Humbolt Hoedown
12 Banter (Band Intros) —>
13 Can’t Wait To See You Again
14 Spill My Whiskey —>
15 Catfish John

Set Two:

16 Raise Your Glass
17 Unknown
18 Allman Brothers Influences
19 Ain’t Wastin’ Time No More
20 Mexico —>
21 All Night Long
22 You Can Call Me Al
23 Easy Come Easy Go
24 Abigail
25 Rock Star On The Weekend *
26 JMS Group Photo Banter
27 Happy Birthday Ian

* Performed Off Stage Acoustically

Poor Man’s Whiskey Is:

Josh Brough - Guitar / Vox
David Noble - Guitar / Vox
Jason Beard - Mandolin / Vox
George Smeltz - Suitcase / Drums
Murph Murphy - Bass

Check me out on Youtube and please Subscribe
https://www.youtube.com/channel/UCbLDkrWkBjNDP6-qzikPN5g

Please check out my recording page on Facebook and give it a like !
https://www.facebook.com/pages/MuzikWize-Live-Recordings/681543778579073?ref=hl

Here's a link to everything you may have missed
https://archive.org/details/@scottmedeiros

Torrents you may have missed http://bt.etree.org/?searchzz=scottmedeiros&cat=0


Media Files:
http://bt.etree.org/download.php/588959/PMW.torrent




Ryan Montbleau - Catskill Chill, Lakewood, PA 2016-09-24 Schoeps MK41V's

2016-09-26T05:38:15

Ryan Montbleau
Catskill Chill Music Festivsl
Lakewood, PA
September 24, 2016

Schoeps MK41V's>KCY 250/05i>VST62iu (Just in front of Soundboard DFC at 9ft)>Sound Devices 744t
SD744t>Sound Forge Pro 11 (Fades,iZotope 64 Bit SRC/iZotope MBIT+ Bit depth conversion to 16 Bit/44.1khz)>CDWAV(Tracking)>Trader's Little Helper (FLAC)

Recorded By Keith Litzenberger

Set List:

01 Maybe Today
02 Inspired By No One
03 Ghosts
04 Never Gonna Be
05 Hot Coffee In A Paper Cup
06 Honeymoon Eyes
07 Songbird
08 75 and Sunny
09 Pacing Like Prince
10 Pump It Up


Media Files:
http://bt.etree.org/download.php/588958/rmb2016-09-24.schoepsMK41v.flac16.torrent




moe. - 2002-08-31 Turin, NY-moe.down (KM140) [16441] **FRESH TRANSFER**

2016-09-26T05:27:47

moe.


August 31, 2002
Snow Ridge Ski Area
Turin, New York


Source: FOB Neumann KM140 (ORTF) > V2 > SBM1 > D8
Transfer: DAT/m > Tascam DA-20 MKII > SPDIF > MacMini(Audacity) > xACT(FLAC/TAG)
Taper: Matt “Lazy Lightning” Lazor
Transfer: DiGiHoArDeRs 9/24/16



SET ONE
01. Akimbo
02. Not Coming Down >
03. Wormwood >
04. Okayalright
05. Mexico
06. New York City
07. Bring It Back Home


SET TWO
08. St. Augustine
09. Shoot First
10. Crab Eyes
11. Tambourine
12. Captain America >
13. Recreational Chemistry


SET THREE
14. Seat Of My Pants* >
15. Sensory Deprivation Bank*
16. Gone
17. Bullet >
18. Kyle’s Song^ >
19. Bend Sinister >
20. Kids
ENCORE
21. Timmy Tucker



* Jim on drums, Vinnie on percussion, Seth Yacovone on guitar
^ With Govinda of the Grapes on flute.


Media Files:
http://bt.etree.org/download.php/588957/moe2002-08-31 Turin, NY (KM140) [16441].torrent




moe. - 2002-08-30 Turin, NY-moe.down (KM140) [16441] **FRESH TRANSFER**

2016-09-26T05:26:10

moe.


August 30, 2002
Snow Ridge Ski Area
Turin, New York


Source: FOB Neumann KM140 (ORTF) > V2 > SBM1 > D8
Transfer: DAT/m > Tascam DA-20 MKII > SPDIF > MacMini(Audacity) > xACT(FLAC/TAG)
Taper: Matt “Lazy Lightning” Lazor
Transfer: DiGiHoArDeRs 9/24/16



Meat*
32 Things
Spine of a Dog >
Buster
Understand
The Ghost of Ralph's Mom
Hi and Lo >
Brent Black
ENCORE
Godzilla

* with Jon Fishman(drums) & Jamie Masefield(mandolin)


Media Files:
http://bt.etree.org/download.php/588956/moe2002-08-30 Turin, NY (KM140) [16441].torrent




Greensky Bluegrass - Catskill Chill, Lakewood, PA 2016-09-25 Microtech Gefell M21's

2016-09-26T03:46:52

Greensky Bluegrass
Catskill Chill Music Festivsl
Lakewood, PA
September 25, 2016

Microtech Gefell M21's>Nbob Cables>Naiant Tinybox>Roland R-05 (40 feet in front of Soundboard DFC at 5'10")
R-05>Sound Forge Pro 11 (Fades,iZotope 64 Bit SRC/iZotope MBIT+ Bit depth conversion to 16 Bit/44.1khz)>CDWAV(Tracking)>Trader's Little Helper (FLAC)


Recorded By Keith Litzenberger

Set List:

01 When Doves Cry
02 Past My Prime
03 Living Over
04 Room Without A Roof
05 Just To Lie/Run Or Die
06 In Control
07 Letter To Seymour
08 Leap Year
09 Miss September
10 Pig In A Pen
11 Merely Avoiding
12 I'd Probably Kill You
13 *Will The Circle Be Unbroken?
14 *Ain't No Bread In The Breadbox


* w/ Roosevelt Collier on lap steel


Media Files:
http://bt.etree.org/download.php/588955/gsbg2016-09-25.mg21.flac16.torrent




Cabinet - Catskill Chill, Lakewood, PA 2016-09-24 Schoeps MK41V's

2016-09-26T02:25:52

Cabinet
Catskill Chill Music Festivsl
Lakewood, PA
September 24, 2016
www.cabinetmusic.com


Schoeps MK41V's>KCY 250/05i>VST62iu (Just in front of Soundboard DFC at 9ft)>Sound Devices 744t
SD744t>Sound Forge Pro 11 (Fades,iZotope 64 Bit SRC/iZotope MBIT+ Bit depth conversion to 16 Bit/44.1khz)>CDWAV(Tracking)>Trader's Little Helper (FLAC)


Recorded By Keith Litzenberger

Set List:

01 Drums & Bass/D Minor Jam>
02 A Smile
03 Admitting>
04 Mysterio
05 Ms. Molly
06 Arco Arena
07 Bottom Of The Sea
08 Susquehanna Breakdown
09 Ain't Gonna Work Tomorrow
10 Hey Baby
11 Heavy Rain


Media Files:
http://bt.etree.org/download.php/588953/cabinet2016-09-24.schoepsMK41v.flac16.torrent




Big Mean Sound Machine, Thunder Road, Somerville MA 09-24-2016 (Afrobeat/Funk from Ithaca NY)

2016-09-26T00:33:26

Big Mean Sound Machine
Thunder Road
Somerville MA 09-24-2016

01 Sahara Cellphone
02 Burning Van
03 In The Name Of What?
04 Whoa Gosh
05 Seeing the Bigger Picture
06
07 How It Goes
08 Band Chatter
09 Sweet Tooth
10 The Egg
11 Mauraders

Angelo Peters: Bass, Moog Synth
Dan Barker: Guitars
Ray Macnamara: Guitars
Dana Billings: Keyboards
Alicia Aubin: Trombone
Jamie Yaman: Tenor Saxophone
Jack Storer : Trumpet
Andrew Klein: Drums & Percussion
Lex Schmidt: Congas & Percussion

TRADE FREELY / NEVER FOR SALE
Support the Bands & the Venues:
www.bigmeansoundmachine.com
www.thunderroadclub.com

Field:
AKG 461 (DIN)->MiAGi II Silvers->
Fostex FR2-LE (Oade wmod) 24/96
10'High / 30' ROC

Post:
Fades, Downsample in Audacity
Track Splits in CDWav
FLAC & Torrent in Traders Little Helper



Media Files:
http://bt.etree.org/download.php/588952/bmsm-2016-09-24.torrent




gd1982-07-17s2.nak300.schley.136979.flac1644

2016-09-25T23:00:28

GRATEFUL DEAD
Ventura County Fairgrounds
Ventura CA
07-17-1982
Second Set

s2t01 Playin' in the Band >
s2t02 China Cat Sunflower >
s2t03 I Know You Rider >
s2t04 Estimated Prophet >
s2t05 Jam (without Jerry) >
s2t06 Drums >
s2t07 Space >
s2t08 The Wheel >
s2t09 Playin' in the Band Reprise >
s2t10 Around & Around >
s2t11 One More Saturday Night
s2t12 Encore: It's All Over Now Baby Blue

AUD: Nakamichi CM300/CP4 shotguns > Sony TC-D5M > Maxell MX-90,
FOB recording by Brian Schley.

Transfer: MAC > Nakamichi CR-5A > Edirol FA-66 > Wavelab 2448 >
R8Brain SRC > Wavelab (adding 16-bit patch) > CD-Wave > TLH >
FLAC 1644 tagged. Transferred by Andrew F. 09/2016

Note: ID-98609 patch Drums 7:03 > 7:37. Some wind-noise is evident.
Thanks Jon Pasternak & Charlie McGuth for organizing this project!

length expanded size cdr WAVE problems fmt ratio filename
11:46.19 124583132 B --- -- ---xx flac 0.6107 gd1982-07-17s2t01.flac
7:08.56 75630956 B --- -- ---xx flac 0.6156 gd1982-07-17s2t02.flac
5:53.59 62408012 B --- -- ---xx flac 0.6252 gd1982-07-17s2t03.flac
10:04.63 106693820 B --- -- ---xx flac 0.6037 gd1982-07-17s2t04.flac
4:46.59 50589212 B --- -- ---xx flac 0.5795 gd1982-07-17s2t05.flac
7:36.66 80593676 B --- -- ---xx flac 0.5217 gd1982-07-17s2t06.flac
4:57.59 52529612 B --- -- ---xx flac 0.5318 gd1982-07-17s2t07.flac
5:22.18 56843180 B --- -- ---xx flac 0.6035 gd1982-07-17s2t08.flac
4:18.61 45654716 B --- -- ---xx flac 0.5951 gd1982-07-17s2t09.flac
3:47.19 40087532 B --- -- ---xx flac 0.6047 gd1982-07-17s2t10.flac
4:21.32 46115708 B --- -- ---xx flac 0.6208 gd1982-07-17s2t11.flac
7:06.58 75282860 B --- -- ---xx flac 0.5821 gd1982-07-17s2t12.flac
77:11.44 817012416 B 0.5918 (12 files)

No errors occured.


Media Files:
http://bt.etree.org/download.php/588951/gd1982-07-17s2.nak300.schley.136979.flac1644.torrent




The Steepwater Band - 2016-09-16 - Schuba's - Chicago, IL

2016-09-25T20:35:51

The Steepwater Band
Schuba's
Chicago, IL
September 16, 2016

Source: Sennheiser e914's (directly FOB a few feet ROC) > Sound Devices 722 (24/48, 40 Hz HPF @ 12 dB/oct.)
Transfer: CF card > Audiogate (fades, tracking, normalize, dither/re-sample to 16/44.1) > xACT (flac 8 w/ SBA & tags)

Recorded & transferred by taperjoe

01. Walk In The Light
02. All The Way To Nowhere
03. Silver Lining
04. Be As It May
05. Mama Got To Ramble
06. I Will Never Know
07. Shake Your Faith
08. Remember The Taker
09. Love In Vain
10. Jealous Of Your Way
11. Last Second Chance
12. High And Humble
13. Dance Me A Number
14. Come On Down
15. Waiting To Be Offended
16. Gone Goodbye
17. Ain't Got Love
Encore:
18. Midnight Rambler

Jeff Massey - guitar & vocals
Eric Saylors - guitar & backing vocals
Tod Bowers - bass & backing vocals
Joe Winters - drums

Enjoy!!


Media Files:
http://bt.etree.org/download.php/588950/tsb2016-09-16.flac16.torrent




Gov't Mule 2016-04-22 New Orleans Jazz & Heritage Festival (Schoeps MK41) *16 bit*

2016-09-25T20:06:29

Gov’t Mule
New Orleans Jazz & Heritage Festival
Gentilly Stage
New Orleans, LA
2016/04/22

Source: Schoeps MK41s(DINa)> KCY 250/5 Ig> PFA> Sound Devices 744 (24/48)
Location: FOB/LOC/FOP 8.5' High
DSP: 744> MBP> Audacity(normalize/amplify/resample/track/fades)> Wave(16)> XLD> FLAC> xACT(fixSBE/tags)
Recorded/Transferred: nolamule

Set I
01 Railroad Boy >
02 Thorazine Shuffle
03 Banks of the Deep End
04 Time to Confess
05 Brokedown on the Brazos
06 Gold Dust Woman *
07 Game Face **
08 When Doves Cry >
09 Beautifully Broken >
10 When Doves Cry >
11 Beautifully Broken
12 Captured >
13 Mule
14 Soulshine

* with with Grace Potter
** with Birdland & Mountain Jam teases

Note: Lots of crowd noise during this set, but a solid show from the Mule. This was the closing set at the Gentilly Stage, first Friday of the 47th annual Jazzfest!


Media Files:
http://bt.etree.org/download.php/588949/gm2016-04-22.mk41.nolamule.torrent




Black Crowes & Finale Jam - 1997/07/03 - Furthur Festival - Forest Hills Tennis Center - New York, NY

2016-09-25T19:21:50

Black Crowes
7/3/97
Forest Hills Tennis Center - New York, NY

Source: B & K 4021
Transfer: DAT > Sony PCM-R300 > M-Audio Fast Track Pro 16/48 > Apple MacBook Pro > WAV
Taper Unknown
Transferred by Michael Scotellaro
Seeded by Bill Graves

~ Black Crowes ~
1. Cursed Diamond
2. Tied Up & Swallowed
3. Paint an Eight
4. Jealous Again
5. Girl From A Pawnshop
6. Thorn in My Pride *
7. Nonfiction *
8. Jam *# >
9. Hard to Handle *#

~ Furthur Finale Jam ~
1. Feelin' Alright
2. Sugaree
3. Midnight Hour >
4. Jumping Jack Flash

*-w/Ben Ellis on Sax
#-w/Bob Weir on Guitar

Note:
Fair amount of static in the Finale Jam

Huge thanks to Mike for transferring the tapes.

This show is part of The Furthur Project
http://thefurthurproject.wordpress.com/


Media Files:
http://bt.etree.org/download.php/588948/Black Crowes - 1997-07-03.torrent




Ratdog & Thrust Jam - 1997/07/03 - Furthur Festival - Forest Hills Tennis Center - New York, NY

2016-09-25T19:20:42

Ratdog
7/3/97
Forest Hills Tennis Center - New York, NY

Source: B & K 4021
Transfer: DAT > Sony PCM-R300 > M-Audio Fast Track Pro 16/48 > Apple MacBook Pro > WAV
Taper Unknown
Transferred by Michael Scotellaro
Seeded by Bill Graves

~ Ratdog ~
1. Hell In A Bucket
2. It's All Over Now
3. Playin' in the Band >
4. It's All Over Now, Baby Blue
5. Juke
6. Corrina
7. Bass >
8. Playin' Reprise
9. Cassidy

~ Thrust Jam ~
1. Tuning
2. On the Road Again
3. That'll Never Happen No More
4. Friend of the Devil
5. Birdsong

Huge thanks to Mike for transferring the tapes.

This show is part of The Furthur Project
http://thefurthurproject.wordpress.com/


Media Files:
http://bt.etree.org/download.php/588947/Ratdog - 1997-07-03.torrent




Mickey Hart's Planet Drum - 1997/07/03 - Furthur Festival - Forest Hills Tennis Center - New York, NY

2016-09-25T19:19:32

Mickey Hart's Planet Drum
7/3/97
Forest Hills Tennis Center - New York, NY

Source: B & K 4021
Transfer: DAT > Sony PCM-R300 > M-Audio Fast Track Pro 16/48 > Apple MacBook Pro > WAV
Taper Unknown
Transferred by Michael Scotellaro
Seeded by Bill Graves

1. Track 1
2. Track 2
3. Track 3
4. Track 4
5. Track 5
6. Track 6
7. Track 7 *
8. Track 8 *
9. Only the Strange Remain *

*-w/Jorma Kaukonen on Guitar

Note: Mickey's microphone has some issues throughout

This show is part of The Furthur Project
http://thefurthurproject.wordpress.com/


Media Files:
http://bt.etree.org/download.php/588946/Mickey Hart's Planet Drum - 1997-07-03.torrent




Jalopy - Thunder Road, Somerville MA 09-24-2016 (Boston Funk Band)

2016-09-25T17:19:06

Jalopy
Thunder Road
Somerville MA 09-24-2016
(opening for Big Mean Sound Machine)

01
02
03 Goliath
04 Flood In Franklin Park
05
06 Madison Square
07
08 Crazyhorse Mongoose
09 Speedball

Jalopy is:
Glenn Barnett - Keyboards
Kevin Farias -Guitar
Mark Miller - Bass
Tim McKenna - Percussion
Dave Hill, Jr. - Drums
Patrick Osborne - Tenor Sax
Scott Grant - Trombone
Dave Umstead - Trumpet

TRADE FREELY / NEVER FOR SALE
Support the Bands & the Venues:
www.jalopyfunk.com
www.thunderroadclub.com

Field:
AKG 461 (DIN)->MiAGi II Silvers->
Fostex FR2-LE (Oade wmod) 24/96
10'High / 30' ROC

Post:
Fades, Downsample in Audacity
Track Splits in CDWav
FLAC & Torrent in Traders Little Helper


Media Files:
http://bt.etree.org/download.php/588945/jalopy-2016-09-24.torrent




Devon Allman Band 2016-09-23, Winterbach, Ger, Beesneez.flac16 **fixed**

2016-09-25T17:07:45

Devon Allman Band
Strandbar 51,
Winterbach, Ger
2016-09-23

- Ragged & Dirty World Tour -


A Team Southern Germany Production

BeesNeez Lulu FET matched pair>Tascam DR 100 (16/44.1)>SanDisk>Wav
transfer:
SanDisk>MicroMate>MS-Tech USB Hub>HD>CoolEdit2000 (fades, left channel + 2,14 dB))>CDWave (track splitting)>TLH>flac level 8.
Checked (and fixed) for sbe's w/ TLH.

mic position: 2m in the air, fixed on africolaman´s stand dead center, lob, how, 7m from stage.

taper:
chico1610

setlist:
01 stage announcement (Steffen)
02 Wash In A
03 Half The Truth
04 Can't Lose Them All
05 Mahalo
06 banter
07 Left My Heart in Memphis
08 Checking On My Baby
09 Back To You
10 Could Get Dangerous
11 No Woman, No Cry
12 band intro
13 I'll Be Around
14 Midnight Lake Michigan > encore calls
Encores:
15 Say Your Prayers >
16 Bunch Of Teases & Covers (Sweet Home Alabama, Smells like teen spirit/?/?/Jessica/Whole lotta love/?)>
17 One Way Out

102:47 min

Lineup:
Devon Allman – Guitars & Lead Vocals
Bobby Schneck Jr - Second Guitar & Backing Vocals
Steve Duerst – Bass Guitar & Backing Vocals
Anthony Nanney – Drums


Taped with permission of the band.
Thanks to Golle & the Kulti team - for everything!


Media Files:
http://bt.etree.org/download.php/588944/Devon Allman Band 2016-09-23, Winterbach, Ger, Beesneez.flac16.torrent




The Wood Brothers - Thompson's Point, Portland, Maine 2016-06-17 Neumann TLM170 **flac24**

2016-09-25T14:34:07

Wood Brothers
Thompson's Point
Portland, ME
6/17/2016

Neumann KM184s (just in front of the SBD mix position, 1 or 2 feet left of center) -> Sound Devices 722 (@24/96); Tracked in CDWav. IDv3 tagged in Tag&Rename 3.9.8

1. I Got Loaded
2. Never And Always
3. Atlas ->
4. Mary Anna
5. Tried And Tempted *
6. Snake Eyes
7. Pay Attention
8. American Heartache
9. The Luckiest Man
10. Wastin' My Mind
11. banter - band intros
12. Postcards From Hell
13. Honey Jar

* = w/Frere Jacques tease in intro

Oliver Wood = guitar, vocals
Chris Wood = bass, background vocals (lead vocals on track 7), harmonica
Jano Rix = drums, shittar, keys

Special thanks to Justin Marinoff who lent me his Neumann KM184s for the weekend while my TLM170s were out being repaired!

This was an opening set for moe. Cabinet played first, then The Wood Brothers, then moe.

Recorded, Mastered, Tracked, and tagged by Scott Bernstein (9/19-24/2016)


Media Files:
http://bt.etree.org/download.php/588942/wbr2016-06-17.tlm170.flac24.torrent




The Wood Brothers - Thompson's Point, Portland, Maine 2016-06-17 Neumann TLM170 flac16

2016-09-25T14:32:23

Wood Brothers
Thompson's Point
Portland, ME
6/17/2016

Neumann KM184s (just in front of the SBD mix position, 1 or 2 feet left of center) -> Sound Devices 722 (@24/96); FLAC File processing in SoundForge 11 (volume normalization; resample to 44.1 with iZotope 64-Bit SRC set higher than "Highest Quality" setting w/anti-alias filter; 24->16 bit dither using iZotope MBIT+ Dither with Ultra noise shaping, High dither settings); Tracked in CDWav. IDv3 tagged in Tag&Rename 3.9.8


1. I Got Loaded
2. Never And Always
3. Atlas ->
4. Mary Anna
5. Tried And Tempted *
6. Snake Eyes
7. Pay Attention
8. American Heartache
9. The Luckiest Man
10. Wastin' My Mind
11. banter - band intros
12. Postcards From Hell
13. Honey Jar

* = w/Frere Jacques tease in intro

Oliver Wood = guitar, vocals
Chris Wood = bass, background vocals (lead vocals on track 7), harmonica
Jano Rix = drums, shittar, keys

Special thanks to Justin Marinoff who lent me his Neumann KM184s for the weekend while my TLM170s were out being repaired!

This was an opening set for moe. Cabinet played first, then The Wood Brothers, then moe.

Recorded, Mastered, Tracked, and tagged by Scott Bernstein (9/19-24/2016)


Media Files:
http://bt.etree.org/download.php/588941/wbr2016-06-17.tlm170.flac16.torrent




Karl Denson's Tiny Universe performing Dirty Mind - 2016-09-24 - The Capitol Theatre - Port Chester, NY - DPA 4011 > V3 > R44 **2448**

2016-09-25T13:49:20

Karl Denson's Tiny Universe
2016-09-24
The Capitol Theatre
Port Chester, NY

DPA 4011 > V3 > R44 (24/48)
SDHC Card > Sound Forge Pro 2.5 (fades, Normalize, tracking) > xAct (Flac level 8, tagging)
DIN/ROC at the SBD booth

Taped and Transferred by Brian V.

01. intro
02. Dirty Mind
03. When You Were Mine
04. banter
05. Do It All Night
06. banter
07. Gotta Broken Heart Again
08. banter
09. Uptown
10. banter
11. Head >
12. Sister >
13. Party
14. I Wannna Be Your Lover
15. encore break
16. Purple Rain

performed the Dirty Mind album by Prince in its entirety (tracks 1 through 13)
with Angelo Moore (Fishbone) on vocals
thanks to Keith for the ticket

***Support Bands That Allow Taping/Trading***

shntool output
length expanded size cdr WAVE problems fmt ratio filename
0:19.723 5680172 B cxx -- ----- wav 1.0000 kdtu2016-09-24s1t01.wav
9:35.851 165845036 B cxx -- ----- wav 1.0000 kdtu2016-09-24s1t02.wav
5:15.403 90836012 B cxx -- ----- wav 1.0000 kdtu2016-09-24s1t03.wav
1:01.064 17586476 B cxx -- ----- wav 1.0000 kdtu2016-09-24s1t04.wav
5:36.968 97046828 B cxx -- ----- wav 1.0000 kdtu2016-09-24s1t05.wav
0:41.168 11856428 B cxx -- ----- wav 1.0000 kdtu2016-09-24s1t06.wav
4:18.315 74394668 B cxx -- ----- wav 1.0000 kdtu2016-09-24s1t07.wav
1:10.441 20287148 B cxx -- ----- wav 1.0000 kdtu2016-09-24s1t08.wav
8:58.668 155136428 B cxx -- ----- wav 1.0000 kdtu2016-09-24s1t09.wav
1:11.072 20468780 B cxx -- ----- wav 1.0000 kdtu2016-09-24s1t10.wav
7:45.052 133935020 B cxx -- ----- wav 1.0000 kdtu2016-09-24s1t11.wav
1:22.457 23747756 B cxx -- ----- wav 1.0000 kdtu2016-09-24s1t12.wav
10:06.059 174544940 B cxx -- ----- wav 1.0000 kdtu2016-09-24s1t13.wav
8:45.216 151262252 B cxx -- ----- wav 1.0000 kdtu2016-09-24s1t14.wav
3:36.149 62251052 B cxx -- ----- wav 1.0000 kdtu2016-09-24s1t15.wav
7:19.584 126600236 B cxx -- ----- wav 1.0000 kdtu2016-09-24s1t16.wav
77:03.189 1331479232 B 1.0000 (16 files)


Media Files:
http://bt.etree.org/download.php/588940/kdtu2016-09-24.dpa4011.flac24.torrent




Karl Denson's Tiny Universe performing Dirty Mind - 2016-09-24 - The Capitol Theatre - Port Chester, NY - DPA 4011 > V3 > R44 **1644**

2016-09-25T13:49:17

Karl Denson's Tiny Universe
2016-09-24
The Capitol Theatre
Port Chester, NY

DPA 4011 > V3 > R44 (24/48)
SDHC Card > Sound Forge Pro 2.5 (fades, Normalize, tracking, resample iZotope 64-Bit SRC, dither iZotope MBIT+ Dither) > xAct (Flac level 8, tagging, fix SBE)
DIN/ROC at the SBD booth

Taped and Transferred by Brian V.

01. intro
02. Dirty Mind
03. When You Were Mine
04. banter
05. Do It All Night
06. banter
07. Gotta Broken Heart Again
08. banter
09. Uptown
10. banter
11. Head >
12. Sister >
13. Party
14. I Wannna Be Your Lover
15. encore break
16. Purple Rain

performed the Dirty Mind album by Prince in its entirety (tracks 1 through 13)
with Angelo Moore (Fishbone) on vocals
thanks to Keith for the ticket

***Support Bands That Allow Taping/Trading***

shntool output
length expanded size cdr WAVE problems fmt ratio filename
0:19.54 3478652 B --- -- ----- wav 1.0000 kdtu2016-09-24s1t01.wav
9:35.63 101578220 B --- -- ----- wav 1.0000 kdtu2016-09-24s1t02.wav
5:15.31 55638956 B --- -- ----- wav 1.0000 kdtu2016-09-24s1t03.wav
1:01.04 10769852 B --- -- ----- wav 1.0000 kdtu2016-09-24s1t04.wav
5:36.73 59442140 B --- -- ----- wav 1.0000 kdtu2016-09-24s1t05.wav
0:41.13 7263020 B --- -- ----- wav 1.0000 kdtu2016-09-24s1t06.wav
4:18.23 45565340 B --- -- ----- wav 1.0000 kdtu2016-09-24s1t07.wav
1:10.33 12425660 B --- -- ----- wav 1.0000 kdtu2016-09-24s1t08.wav
8:58.50 95020844 B --- -- ----- wav 1.0000 kdtu2016-09-24s1t09.wav
1:11.06 12538556 B --- -- ----- wav 1.0000 kdtu2016-09-24s1t10.wav
7:45.04 82035452 B --- -- ----- wav 1.0000 kdtu2016-09-24s1t11.wav
1:22.34 14544812 B --- -- ----- wav 1.0000 kdtu2016-09-24s1t12.wav
10:06.04 106907852 B --- -- ----- wav 1.0000 kdtu2016-09-24s1t13.wav
8:45.16 92647676 B --- -- ----- wav 1.0000 kdtu2016-09-24s1t14.wav
3:36.12 38130668 B --- -- ----- wav 1.0000 kdtu2016-09-24s1t15.wav
7:19.44 77543132 B --- -- ----- wav 1.0000 kdtu2016-09-24s1t16.wav
77:03.14 815530832 B 1.0000 (16 files)


Media Files:
http://bt.etree.org/download.php/588939/kdtu2016-09-24.dpa4011.flac16.torrent




Trey Anastasio Band 2001-02-26 State Theater, Cleveland, OH Neumann U87s

2016-09-25T13:38:40

Trey Anastasio Band
February 26, 2001
State Theatre
Cleveland, Ohio

Source: Neumann U87ai ORTF (cardioid) > AD1000 > D8

Transfer: D8 > Delta DiO 2496 > Soundforge 4.5 > SHNv3
(shn import from JD data CD collection > md5 verified xACT> WAV > FLAC in xACT by DS 9/2016)

recorded by Dave Schall and John D'Auria, transferred by John D'Auria

Trey Anastasio, guitar
Tony Markellis, Bass
Russ Lawton, drums
Dave "The Truth" Grippo, saxophone
Jennifer Hartswick, trumpet
Andy Moroz, trombone

Disc 1
Set I:
1. The Way I Feel
2, Mozambique
3. Acting The Devil
4. Makes No Difference
5. First Tube
6. Burlap Sack and Pumps
7. Aqui Como Alla*
8. Waves**
9. Bathtub Gin***

Disc 2
Set I (continued)
1. At The Barbecue****
2. At The Gazebo^
3. Will It Go Round In Circles
Set II:
4. (Come On Baby Let's Go) Downtown
5. Signed Sealed Delivered I'm Yours
6. Sand
7. Sunday Morning
8. Nothing But An E Thing
9. Happiness In My Pants^^

Disc 3
Set II (continued)
1. Windora Bug^^^
2. Gotta Jibboo
E: Mellow Mood

* - Marc Ribot cover, no horns, played on 1st Trey solo tour
** - Trey and Tony acoustic
*** - Trey solo acoustic
**** - horns only
^ - Trey and Tony acoustic with horns
^^ - electric, same as the acoustic song from Roseland show
^^^ - no horns, long and ambient Trey keyboard solo in the middle


Media Files:
http://bt.etree.org/download.php/588938/tab2001-02-26 Cleveland, OH U87.torrent




Widespread Panic, St. Augustine Ampitheatre,St. Augustine, FL, 09/24/2016 *ccm41*

2016-09-25T07:27:53



Widespread Panic
St. Augustine Ampitheatre
St. Augustine,FL
09/24/2016


Schoeps ccm41>DinA>KC5>CMC6>analog>788T (HPF 0) 24/48
Row Section 202 , Seat 118, dead center, 4 rows behind soundboard Stand at 8'
dsp: 788t > wavelab5 > cdwave > wavelab5 > flac(7)

tagging: Flacs tagged with Foobar2000 Live Show Tagger

Recorded by Bennett Schwartz


Set (167 MINUTES)

01 Intro
02 Let's Get The Show On The Road
03 Contentment Blues
04 Love Tractor
05 Gradle
06 Thought Sausage
07 The Last Straw
08 Hatfield
09 Angels Don't Sing The Blues
10 Flat Foot Flewzy
11 Action Man
12 Don't Be Denied
13 Last Dance
14 Pilgrims
15 Red Beans
16 Machine >
17 Barstools & Dreamers
18 City of Dreams
19 Goin' Out West >
20 Drums >
21 Saint Ex
22 North
23 crowd

Encore (11 mins)

24 Expiration Day
25 Dear Mr Fantasy


Notes ['Saint Ex' with inverted intro]


Media Files:
http://bt.etree.org/download.php/588936/wsp2016-09-24_ccm41_flac16.torrent




Widespread Panic, St. Augustine Ampitheatre,St. Augustine, FL, 09/24/2016 *mk22*

2016-09-25T07:27:49



Widespread Panic
St. Augustine Ampitheatre
St. Augustine,FL
09/24/2016


Schoeps mk22>NOS>KC5>CMC6>analog>788T (HPF 0) 24/48
Row Section 202 , Seat 118, dead center, 4 rows behind soundboard Stand at 8'
dsp: 788t > wavelab5 > cdwave > wavelab5 > flac(7)

tagging: Flacs tagged with Foobar2000 Live Show Tagger

Recorded by Bennett Schwartz


Set (167 MINUTES)

01 Intro
02 Let's Get The Show On The Road
03 Contentment Blues
04 Love Tractor
05 Gradle
06 Thought Sausage
07 The Last Straw
08 Hatfield
09 Angels Don't Sing The Blues
10 Flat Foot Flewzy
11 Action Man
12 Don't Be Denied
13 Last Dance
14 Pilgrims
15 Red Beans
16 Machine >
17 Barstools & Dreamers
18 City of Dreams
19 Goin' Out West >
20 Drums >
21 Saint Ex
22 North
23 crowd

Encore (11 mins)

24 Expiration Day
25 Dear Mr Fantasy


Notes ['Saint Ex' with inverted intro]


Media Files:
http://bt.etree.org/download.php/588935/wsp2016-09-24_mk22_flac16.torrent




Widespread Panic, St. Augustine Ampitheatre,St. Augustine, FL, 09/24/2016 *mk4*

2016-09-25T07:27:45



Widespread Panic
St. Augustine Ampitheatre
St. Augustine,FL
09/24/2016


Schoeps mk4>DinA>KC5>CMC6>analog>788T (HPF 0) 24/48
Row Section 202 , Seat 118, dead center, 4 rows behind soundboard Stand at 8'
dsp: 788t > wavelab5 > cdwave > wavelab5 > flac(7)

tagging: Flacs tagged with Foobar2000 Live Show Tagger

Recorded by Bennett Schwartz


Set (167 MINUTES)

01 Intro
02 Let's Get The Show On The Road
03 Contentment Blues
04 Love Tractor
05 Gradle
06 Thought Sausage
07 The Last Straw
08 Hatfield
09 Angels Don't Sing The Blues
10 Flat Foot Flewzy
11 Action Man
12 Don't Be Denied
13 Last Dance
14 Pilgrims
15 Red Beans
16 Machine >
17 Barstools & Dreamers
18 City of Dreams
19 Goin' Out West >
20 Drums >
21 Saint Ex
22 North
23 crowd

Encore (11 mins)

24 Expiration Day
25 Dear Mr Fantasy


Notes ['Saint Ex' with inverted intro]


Media Files:
http://bt.etree.org/download.php/588934/wsp2016-09-24_mk4_flac16.torrent