Subscribe: bt.etree.org
http://bt.etree.org/rss/bt_etree_org.rdf
Added By: Feedage Forager Feedage Grade B rated
Language: English
Tags:
bit  flac flac  flac jimmy  flac  jimmy flac  jimmy herring  jimmy  phish  set  sound devices  sound  source  thesteppin flac 
Rate this Feed
Rate this feedRate this feedRate this feedRate this feedRate this feed
Rate this feed 1 starRate this feed 2 starRate this feed 3 starRate this feed 4 starRate this feed 5 star

Comments (0)

Feed Details and Statistics Feed Statistics
Preview: bt.etree.org

bt.etree.org



etree.org BitTorrent Tracker



Published: 2017-07-27T19:00:02

Last Build Date: 2017-07-27T19:00:02

Copyright: Copyright 2013, etree.org
 



phish2017-07-26mk4

2017-07-27T12:23:49

Collection: Phish
Band/Artist: Phish
Date: July 26, 2017
Venue: Madison Square Garden
Location: New York, NY

OTS: Section 2 Row 1 Seat 21


Source: Schoeps MK4>CMC-6[ORTF]>Oade M248>HYDRA XLR cables>Sound Device 702 [24/48 .wav file]
Lineage: ADATA 16GB Compact Flash Flash Card Model SPEEDY CF 16GB>.wav>Adobe Audtition CC ver2017.1.1(Audio Editing)>CD Wave Editor (Track Splitting)> flac(Level 5)>foobar2000v0.9.5.6 (Tagging)>Traders Little Helper (md5)

Taped by pmonk
Transferred by pmonk


Setlist

Set 1

01. White Winter Hymnal[1]
02. Cars Trucks Buses
03. My Soul
04. Roses Are Free
05. The Very Long Fuse
06. Gumbo
07. Yarmouth Road
08. Pebbles and Marbles
09. Farmhouse
10. Tube

Set 2

01. Carini>
02. Mr. Completely>
03. 1999>
04. Steam>
05. No Quarter
06. Character Zero

Encore:
07. Powderfinger[2]

NOTES:

[1] Debut; a capella
[2] Debut


Media Files:
http://bt.etree.org/download.php/594302/phish2017-07-26mk4.torrent




Trey Anastasio Band 10-15-06

2017-07-27T08:49:08

Trey Anastasio Band
Thomas Wolfe Auditorium - Asheville, NC
10/15/2006

Source: Nakamichi Cm300 (active p48 mod)/cp1 (DIN)> Edirol Ua-5> iriver h120 (16/44.1)
Location: Orch. Center; Row L Seat 7; 5' high (FOB, DFC)
Transfer: h120> usb> Audacity 1.2.4> xACT (fixed SBE's and converted to flac)
Taped and Transferred by Patrick Moore (pat@taperssection.com)

Disc One
--Set One--
01 Goodbye Head>
02 Push On Till the Day
03 Dark and Down
04 Gotta Jibboo
05 Sleep Again
06 Cayman Review
07 Shine
08 Sample in a Jar*
09 Driver*

Disc Two
01 Pebbles and Marbles*
02 Harry Hood*

--Set Two--
03 Jam>
04 Bar 17>
05 Sand

Disc Three
04 Dragonfly
05 Crowd
06 E: Words to Wanda**
07 E: Tuesday

* Trey Solo Acoustic
** First Time Played

Huge thanks to Ben for the tickets; Dave, Alison, and Misty for the blocking and clamp space.


Media Files:
http://bt.etree.org/download.php/594301/trey06-10-15.torrent




The Steppin' Stones Terminal West Atlanta, Georgia 7/25/2017 (Schoeps CCM4V'S FOB)

2017-07-27T06:05:21

The Steppin' Stones
Terminal West
Atlanta, Georgia
7/25/2017

Source: Schoeps CCM4V's(Din)>Lunatec V2>Benchmark AD2K>
Sound Devices 722 (24/44)
FOB/DFC/KFC/ZFC/AARP Clamped To The Rail Of The Balcony
DSP: Sound Devices 722>Sound Forge 10.0>CD Wave>flac(16)
ID3 Tagged In Foobar 2000
Recorded By: Z-Man
Seeded By: Z-Man

Disc I

01 ? >
02 ?
03 ?
04 ? >
05 Ohio >
06 How Many More Years Jam >
07 ?
08 Mama Said

Hannah Wicklund - Guitar And Vocals
Egan Miller - Bass
Houston Mathews - Drums

thesteppin2017-07-25d01t01.flac:2a771df6aa376d0a444c2f4e8c933cf3
thesteppin2017-07-25d01t02.flac:3469e75e65453d0e2cb7884a74873e05
thesteppin2017-07-25d01t03.flac:48d1f33dadc305b9960a03b27aebbb85
thesteppin2017-07-25d01t04.flac:d700910909d2496c958bcf8145cedba6
thesteppin2017-07-25d01t05.flac:613e031a9d01af0e6853641b4293e30d
thesteppin2017-07-25d01t06.flac:19ce9fcaef65670a0750e3803e512cf8
thesteppin2017-07-25d01t07.flac:ef7a7acfa13da97561a7b3e63d2410af
thesteppin2017-07-25d01t08.flac:ee711eb54c0c15c01e69e101ec0440cd

length expanded size cdr WAVE problems fmt ratio filename
5:03.68 53609180 B --- -- ---xx flac 0.5515 thesteppin2017-07-25d01t01.flac
5:12.34 55116812 B --- -- ---xx flac 0.5025 thesteppin2017-07-25d01t02.flac
4:38.17 49079228 B --- -- ---xx flac 0.4810 thesteppin2017-07-25d01t03.flac
5:20.46 56556236 B --- -- ---xx flac 0.5237 thesteppin2017-07-25d01t04.flac
6:49.10 72171164 B --- -- ---xx flac 0.5512 thesteppin2017-07-25d01t05.flac
4:36.68 48846380 B --- -- ---xx flac 0.5358 thesteppin2017-07-25d01t06.flac
3:30.37 37131068 B --- -- ---xx flac 0.5064 thesteppin2017-07-25d01t07.flac
13:00.40 137686124 B --- -- ---xx flac 0.4735 thesteppin2017-07-25d01t08.flac
48:12.20 510196192 B 0.5105 (8 files)













Media Files:
http://bt.etree.org/download.php/594300/thesteppin2017-07-25.flac16.torrent




Okkervil River - July 25, 2017 - Washington, D.C. (DPA 4023) 24-bit

2017-07-27T02:15:52

Okkervil River
25 July 2017 (Tuesday)
The Hamilton
Washington, D.C.

Source: DPA 4023 > Sound Devices MixPre-6 (24/48)
Transfer: MP6 > iMac. Tracked via Sound Studio, FLAC via xACT

Recorded by Alex Leary

01. Bruce Wayne Campbell Interviewed On The Roof Of The Chelsea Hotel, 1979
02. Lost Coastlines
03. Listening To Otis Redding At Home During Christmas
04. The President's Dead
05. The Industry
06. Love to a Monster
07. Red
08. Judey on a Street
09. Okkervil River R.I.P.
10. The Velocity Of Saul At The Time Of His Conversion
11. It Ends with a Fall
12. A Favor
13. John Allyn Smith Sails
14. E: Your Past Life as a Blast
15. Another Radio Song

Will Sheff - acoustic guitar, vocals
Benjamin Lazar Davis - upright bass
Will Graefe - electric guitar

Notes:

- Okkervil River performed as a trio as part of Rarities and Requests tour
- Jesse Hale Moore opened.


Media Files:
http://bt.etree.org/download.php/594299/okkervilriver2017-07-25.flac24.torrent




Okkervil River - July 25, 2017 - Washington, D.C. (DPA 4023) 16-bit

2017-07-27T02:14:56

Okkervil River
25 July 2017 (Tuesday)
The Hamilton
Washington, D.C.

Source: DPA 4023 > Sound Devices MixPre-6 (24/48)
Transfer: MP6 > iMac. Tracked and resampled to 16-bit via Sound Studio, FLAC via xACT

Recorded by Alex Leary

01. Bruce Wayne Campbell Interviewed On The Roof Of The Chelsea Hotel, 1979
02. Lost Coastlines
03. Listening To Otis Redding At Home During Christmas
04. The President's Dead
05. The Industry
06. Love to a Monster
07. Red
08. Judey on a Street
09. Okkervil River R.I.P.
10. The Velocity Of Saul At The Time Of His Conversion
11. It Ends with a Fall
12. A Favor
13. John Allyn Smith Sails
14. E: Your Past Life as a Blast
15. Another Radio Song

Will Sheff - acoustic guitar, vocals
Benjamin Lazar Davis - upright bass
Will Graefe - electric guitar

Notes:

- Okkervil River performed as a trio as part of Rarities and Requests tour
- Jesse Hale Moore opened.


Media Files:
http://bt.etree.org/download.php/594298/okkervilriver2017-07-25.flac16.torrent




Phish 7/25/17 BD #4 (JAM FILLED!!!) Schoeps mk22 DFC **16bit**

2017-07-26T18:17:52

Phish
Madison Square Garden | New York, NY
Tuesday, July 25, 2017

Location: DFC (Section 2, Row 6, Seat 9), Stand affixed to the rear SBD rail @ ~8 Feet.
Source: Schoeps mk22 (35cm @ ~70°)> Nbob KCY> Naiant Littlebox> Sound Devices Mixpre6 (Line in @ 24bit/48kHz)
Transfer> SD Card> Macbook Pro> Sound Studio (Tracking & Fades)> xact (Tagging and flaccing)

Recorded and Transferred by Phishrabbi (noahbickart@gmail.com)

16bit Conversion: Joe Logrippo (wharfratjoe@gmail.com) 7/26/2017
flac > wav (flac frontend v2.1, using flac 1.3.0 > flac 16/44.1 (Audition CS6)
Tagging: Live Show Tagger

Set One:
01 Sample In A Jar
02 Lawn Boy >
03 My Friend, My Friend >
04 Stash
05 Bathtub Gin

Set Two:
06 Fuego >
07 Thread >
08 Crosseyed & Painless >
09 Makisupa Policeman >
10 End Of Session >
11 Tuesday >
12 Cavern
13 Encore Break
14 Julius> Lawn Boy


Media Files:
http://bt.etree.org/download.php/594297/phish2017-07-25.xxxxxx.mk22.phishrabbi.flac16.torrent




Jimmy Herring & The Invisible Whip 2017-07-25 Terminal West Atlanta mk41 *16 Bit*

2017-07-26T17:32:53

Jimmy Herring and The Invisible Whip
2017-07-25
Terminal West, Atlanta GA
source: schoeps mk41>nbob actives>sd 744 24/48
dfc fob balcony rail din
transfer: sdhc>audacity dither>cd wave splits>tlh flac 8

t&s by c. cage

A Home Team Dirty South Recording


01 Matt’s Funk
02 Black Satin
03 Sketch Ballad
04 Les Brers In A Minor
05 Band Intros
06 Jungle Book >
07 Trondossa Jam >
08 Jungle Book
09 New Moon
10 Scapegoat Blues
11 Sketch Slow 6/8
12 Ketch Up Tempo
13 Rainbow
14 Hope
15 Slopes
16 crowd

e:
17 1911


Jimmy Herring - guitar
Jeff Sipe - drums
Kevin Scott - bass
Matt Slocum - keyboards
Jason Crosby - keyboards and fiddle


Media Files:
http://bt.etree.org/download.php/594296/jhiw2017-07-25.torrent




Phish - 2017-07-25 - Baker's Dozen - Jam Filled - AT4031 - 24 bit

2017-07-26T17:32:24

Phish
Madison Square Garden
New York, NY
7/25/2017
Baker's Dozen Night 4
Flavor of the Night - Jam Filled

Audio-Technica AT4031s (OTS, PAS) > GAK Cables > Zoom H6 (@24/48)
mastered in SoundForge v10 > tracked in CDWav > encoded in dBpoweramp > tagged in Mp3tag and Tag & Rename

recorded, mastered, tracked, tagged, and seeded by djphrayz

Set 1
1. Sample in a Jar
2. Lawn Boy >
3. My Friend, My Friend >
4. Stash
5. Bathtub Gin

Set 2
1. Fuego ->
2. Thread >
3. Crosseyed and Painless >
4. Makisupa Policeman ->
5. End of Session >
6. Tuesday
7. Cavern

Encore
8. Julius >
9. Lawn Boy


Media Files:
http://bt.etree.org/download.php/594295/ph2017-07-25.at4031.24bit.torrent




Phish - 2017-07-25 - Baker's Dozen - Jam Filled - AT4031 - 16 bit

2017-07-26T17:29:38

Phish
Madison Square Garden
New York, NY
7/25/2017
Baker's Dozen Night 4
Flavor of the Night - Jam Filled

Audio-Technica AT4031s (OTS, PAS) > GAK Cables > Zoom H6 (@24/48)
mastered in SoundForge v10 > tracked in CDWav > encoded in dBpoweramp > tagged in Mp3tag and Tag & Rename

recorded, mastered, tracked, tagged, and seeded by djphrayz

Set 1
1. Sample in a Jar
2. Lawn Boy >
3. My Friend, My Friend >
4. Stash
5. Bathtub Gin

Set 2
1. Fuego ->
2. Thread >
3. Crosseyed and Painless >
4. Makisupa Policeman ->
5. End of Session >
6. Tuesday
7. Cavern

Encore
8. Julius >
9. Lawn Boy


Media Files:
http://bt.etree.org/download.php/594294/ph2017-07-25.at4031.16bit.torrent




Jimmy Herring and The Invisible Whip Terminal West, Atlanta, Ga., 07/25/2017 (FOB Neumann 150's)

2017-07-26T16:12:19

Jimmy Herring and The Invisible Whip
Terminal West, Atlanta, Ga.,
07/25/2017
Neumann 150's >
V-3 >
Sound Devices 722 24/96 >
Sound Forge Pro 11 >
Sound Studio > xACT
Recorded by David Dyche
Seeded by David Dyche

Disc 1

01. Greeting
02. Matt's Funk
03. Black Satin
04. Sketch Ballad
05. Les Brers In A Minor
06. Band Introductions
07. Jungle Book
08. New Moon
09. Scapegoat Blues

Disc 2

01. Sketch Slow 6/8
02. Ketch Up Tempo
03. Rainbow
04. Hope
05. Slopes

Encore

06. Encore Break
07. 1911

Jimmy Herring - Guitar
Jeff "Apt Q 258" Sipe - Drums
Kevin Scott - Bass
Matt Slocum - Keyboards
Jason Crosby - Keyboards And Fiddle

jimmyh2017-07-25d01t01.flac:577133a10745153dd8bdddca29d4f60e
jimmyh2017-07-25d01t02.flac:4e79461696cfa05b9f178cacef8c5d86
jimmyh2017-07-25d01t03.flac:69fa24dff5937907d085404b92a96f9d
jimmyh2017-07-25d01t04.flac:b4d89d33cdd2a195706375af35d0f8e2
jimmyh2017-07-25d01t05.flac:504b64272a85c0fa0e94f446e0acf0d2
jimmyh2017-07-25d01t06.flac:f4cfdaf1631528bbb487d6c27503ded3
jimmyh2017-07-25d01t07.flac:44fe3ebcec4c18a4bd153703e06bcbdd
jimmyh2017-07-25d01t08.flac:8e549a0ffdf06ca220a3483877eae51a
jimmyh2017-07-25d01t09.flac:70300a7544b5fdc93081e0fd4f71f468
jimmyh2017-07-25d02t01.flac:724a49c0b23495f8ce4f3018a11450d0
jimmyh2017-07-25d02t02.flac:565030181b7345b66cac6e71b9765c88
jimmyh2017-07-25d02t03.flac:4319577691139635a1cd348666e65417
jimmyh2017-07-25d02t04.flac:00621f1a78d039abf545121464b561fe
jimmyh2017-07-25d02t05.flac:7fbd70d27b30b91c7c6696ecdac0a250
jimmyh2017-07-25d02t06.flac:c590d90d7f84264e295c58b98f259474
jimmyh2017-07-25d02t07.flac:1d66569888d95e7ef5038572d4bcd543


Media Files:
http://bt.etree.org/download.php/594293/jimmyh2017-07-25.flac.torrent




Phish 7/25/17 BD #4 (JAM FILLED!!!) Schoeps mk41v DFC **16bit** (fixed - no missing files)

2017-07-26T15:02:59

*** Fixed Torrent to include track 15 and new FFP file. Nothing else changed! ***

Phish
Madison Square Garden; New York, NY
Tuesday, July 25, 2017

Location: DFC (Section 2, Row 6, Seat 9), Stand affixed to the rear SBD rail @ ~8 Feet.
Source: Schoeps mk41v (20cm @ ~70°)> Nbob KCY> Naiant PFA> Sound Devices Mixpre6 (Mic in @ 24bit/48kHz)
Transfer: SD Card> Macbook Pro> Reaper (DSP [dynamics & eq])> Sound Studio (Tracking & Fades)> xact (Tagging and flaccing)

Recorded and Transferred by Phishrabbi (noahbickart@gmail.com)

Set One:

Sample In A Jar
Lawn Boy >
My Friend, My Friend >
Stash
Bathtub Gin

Set Two:

Fuego >
Thread >
Crosseyed & Painless >
Makisupa Policeman >
End Of Session >
Tuesday >
Cavern

Encore:

Julius >
Lawn Boy


Media Files:
http://bt.etree.org/download.php/594292/phish2017-07-25.138882.mk41v.phishrabbi.flac16.torrent




Dead/Phish Orchestra, Main Stage, South Mountain Fairgrounds , Biglerville, Pa 2017-07-08

2017-07-26T15:02:34

Dead/Phish Orchestra, Main Stage, South Mountain Fairgrounds , Biglerville, Pa 2017-07-08

Taper : John Bleich

Editing : Joe D'Amico ''AKA'' Joebeacon

SBD > Edirol R-09HR @24/48

Ediro R-09HR > Master Files > Adobe Audition CS6 > Ozone > Traders Little Helper


Setlist :
01-Here Comes Sunshine >
02-Bathtub Gin >
03-Here Comes Sunshine >
04-Down With Disese
05-King Solomons Marbles
06-The Curtain
07-Jam
08-China Doll
09-Tweezer >
10-Let it Grow >
11-Harry Hood >
12-Let it Grow >
13-The Lizards >
14-Cumberland Blues
15-Tweezer reprise


Media Files:
http://bt.etree.org/download.php/594291/dpo2017-07-08.sbd.flac24.torrent




Melvin Seals & Jerry Garica Band, Main Stage, South Mountain Fairgrounds , Biglerville, Pa 2017-07-08.Flac24

2017-07-26T14:30:04

Melvin Seals & Jerry Garica Band, Main Stage, South Mountain Fairgrounds , Biglerville, Pa 2017-07-08

Taper : John Bleich

Editing : Joe D'Amico ''AKA'' Joebeacon

SBD > Edirol R-09HR @24/48

Ediro R-09HR > Master Files > Adobe Audition CS6 > Ozone > Traders Little Helper

Setlist :
01-Jam
02-Cats Under The Stars
03-When The Hunter Gets Captured By The Game
04-Mystery Train
05-Someday Baby
06-Here Comes The Sun
07-Simple Twist of Fate
08-Harder They Come >
09-Where You Gonna Run To
10-Tore Up >
11-Brothers and Sisters >
12-Deal


Media Files:
http://bt.etree.org/download.php/594290/ms&jgb2017-07-08.sbd.flac24.torrent




Phish - 11/12/1994 - partial soundboard

2017-07-26T14:02:31

Phish - 11/12/1994
MAC Center @ Kent State University


Partial Soundboard recording


This was filler on a 12/3/94 set II DAT.

It is very incomplete and not without flaws, but sounds great.

Set 1
Runaway Jim (08:35)
Guyute (10:35)
Stash (14:00)
Esther (08:52)
Chalk Dust Torture (cuts) (06:16)

Set 2 Julius (08:23)


Encore
Sample in a Jar (04:40)


Source: SBD > c0 > DAT
Xfer: DAT > ARCHIVE Python > vDAT > WaveLab4 > CDWave > Flac


Several hundred dropouts were repaired in Stash using Audacity pencil tool.
Fades were added where appropriate to make for a cleaner listening experience despite various mid-set cuts.


Seeded to etree by rustoleum 7/26/17


Media Files:
http://bt.etree.org/download.php/594289/ph1994-11-12-partialSBD.flac16.torrent




Grateful Dead -- Hunter's Trix -- Vol. 01 -- 08/10/82 -- U. of Iowa Fieldhouse - Iowa City, IA ***Comin' Around***

2017-07-26T13:04:56

*HUNTER'S TRIX - 1*


GRATEFUL DEAD
U. OF IOWA FIELDHOUSE
IOWA CITY, IA
AUGUST 10, 1982

JERRY GARCIA - Lead Guitar, Vocals
MICKEY HART - Drums
BILL KREUTZMANN - Drums
PHIL LESH - Electric Bass, Vocals
BRENT MYDLAND - Keyboards, Vocals
BOB WEIR - Rhythm Guitar, Vocals


CD ONE
1 - FEEL LIKE A STRANGER (10:16)
2 - FRIEND OF THE DEVIL (8:23)
3 - MINGLEWOOD BLUES (7:49)
4 - TENNESSEE JED (9:53)
5 - CASSIDY (7:37)
6 - IT MUST HAVE BEEN THE ROSES (5:27)
7 - TECHNICAL DIFFICULTIES (5:38)
8 - ON THE ROAD AGAIN > (2:58)
9 - BEAT IT ON DOWN THE LINE (5:09)
10 - STAGGER LEE (7:35)

CD TWO
1 - I NEED A MIRACLE > (3:46)
2 - BERTHA (6:47)
3 - CHINA CAT SUNFLOWER > (7:25)
4 - I KNOW YOU RIDER (8:29)
5 - LOST SAILOR > (6:37)
6 - SAINT OF CIRCUMSTANCE > (6:56)
7 - EYES OF THE WORLD > (13:03)
8 - DRUMS > (7:50)

CD THREE
1 - SPACE > (8:51)
2 - IKO IKO > (9:35)
3 - TRUCKIN’ > (6:43)
4 - STELLA BLUE > (8:30)
5 - SUGAR MAGNOLIA (11:52)
6 - IT’S ALL OVER NOW, BABY BLUE > (6:46)
7 - JOHNNY B. GOODE (4:19)


Matrix by Hunter Seamons, 11/28/09
SBD transfer by Charlie Miller, 11/14/09 (Cassette Master > Dat)
AUD recording by Kenny Mance (AKG CE-1 [4th row] > UHER CR-240)
AUD transfer by Charles Bass, 2/25/07
Fractal designed by Sporeboy36

--------------------------------------------------------------------------------------------------------------------------------------------------------------------

Welcome to the Hunter's Trix "Comin' Around" seeds, which are matrix reseeds ten years later from the original seed date. In the spirit of keeping the tapes disseminating to the masses of this planet and turning people on to Grateful Dead music, this reseed project will take place over the next ten years. This is yet another FUN opportunity to download and relive these spectacular concerts and discover new shiny moments of good ole' Grateful Dead music.

With the advent of another reseed project on my part, I imagine some are wondering what could be new and exciting about the Trix comin' around again at bt.etree.org. Aside from the many people that missed these seeds ten years ago (or missed other reseed projects) and are venturing into the series for the first time, you will be pleased to know that all seeds will now be meta tagged with the track information and cover art. I only began meta tagging matrixes with volume 93 and then started adding the cover art with volume 102, so there is a lot of updating to do here. Because of these superficial changes to the file sets, the md5 checksums will be altered but the flac fingerprints will remain the same. For this reason new "tagged" md5's will be included (and noted as "t-flac16" in the torrent file name) with the original ffp files, but the shnid's will remain the same. Also, any cover art upgrades that were made will replace the older files.

This is as definitive as it gets for a Trix reseed project. I look forward to this journey with the online Grateful Dead community. Here's to ten more long, strange trips around the sun...


Hunter


Media Files:
http://bt.etree.org/download.php/594288/gd82-08-10.mtx.seamons.ht01.102902.t-flac16.torrent




Jimmy Herring and The Invisible Whip 2017-07-25 Terminal West, Atlanta, GA (DPA 4021) 24 bit/48 kHZ

2017-07-26T08:54:05

Jimmy Herring and The Invisible Whip
Terminal West, Atlanta, GA
July 25, 2017

Setlist

01 Dhaka Strut
02 Black Satin
03 Sketch Ballad
04 Les Brers In A Minor
05 Jungle Book/Trondossa
06 New Moon
07 Scapegoat Blues
08 Sketch Slow 6/8
09 Ketch Up Tempo
10 Rainbow
11 Hope
12 Slopes
-encore-
13 1911


Jimmy Herring - guitar
Jeff Sipe - drums
Kevin Scott - bass
Matt Slocum - keyboards
Jason Crosby - keyboards and fiddle


DPA 4021 > SD Mixpre-6 @ 48 kHZ/24 bit
ORTF/center balcony
All post production with Logic Pro X
Recorded by D. Fries


Media Files:
http://bt.etree.org/download.php/594287/jhiw2017-07-25.bt.torrent




Phish 7/25/17 BD #4 (JAM FILLED!!!) Schoeps mk22 DFC **24bit**

2017-07-26T06:33:14

Phish
Madison Square Garden | New York, NY
Tuesday, July 25, 2017

Location: DFC (Section 2, Row 6, Seat 9), Stand affixed to the rear SBD rail @ ~8 Feet.
Source: Schoeps mk22 (35cm @ ~70°)> Nbob KCY> Naiant Littlebox> Sound Devices Mixpre6 (Line in @ 24bit/48kHz)
Transfer> SD Card> Macbook Pro> Sound Studio (Tracking & Fades)> xact (Tagging and flaccing)

Recorded and Transferred by Phishrabbi (noahbickart@gmail.com)

Set One:

Sample In A Jar
Lawn Boy >
My Friend, My Friend >
Stash
Bathtub Gin

Set Two:

Fuego >
Thread >
Crosseyed & Painless >
Makisupa Policeman >
End Of Session >
Tuesday >
Cavern

Encore:

Julius> Lawn Boy


Media Files:
http://bt.etree.org/download.php/594286/Phish.2017.07.25.mk22.flac24f.torrent




Phish 7/25/17 BD #4 (JAM FILLED!!!) Schoeps mk41v DFC **24bit**

2017-07-26T06:21:22

Phish
Madison Square Garden; New York, NY
Tuesday, July 25, 2017

Location: DFC (Section 2, Row 6, Seat 9), Stand affixed to the rear SBD rail @ ~8 Feet.
Source: Schoeps mk41v (20cm @ ~70°)> Nbob KCY> Naiant PFA> Sound Devices Mixpre6 (Mic in @ 24bit/48kHz)
Transfer: SD Card> Macbook Pro> Reaper (DSP [dynamics & eq])> Sound Studio (Tracking & Fades)> xact (Tagging and flaccing)

Recorded and Transferred by Phishrabbi (noahbickart@gmail.com)

Set One:

Sample In A Jar
Lawn Boy >
My Friend, My Friend >
Stash
Bathtub Gin

Set Two:

Fuego >
Thread >
Crosseyed & Painless >
Makisupa Policeman >
End Of Session >
Tuesday >
Cavern

Encore:

Julius >
Lawn Boy


Media Files:
http://bt.etree.org/download.php/594285/Phish.2017.07.25.mk41v.flac24f.torrent




PHISH - April 4, 1994 - Flynn Theatre - Burlington, VT ***NEW SOURCE***

2017-07-26T06:01:30

PHISH


Flynn Theatre
Burlington, Vermont
April 4, 1994


Source: Nakamichi cm300/cp-4's > Sony TCD-D3 > DAT(m)
Transfer: DAT(m) > Sony PCM-R500 > SPDIF > Tascam HD-P2 > CDWave > FLAC (16/48)
Source provided by Andrew Derr
Transfer by Terry Watts


Set I:
1. Divided Sky,,
2. Sample
3. Scent
4. Maze,,

Set IIe:
1. ,,DwD >
2. If I Could
3. Buried Alive *
4. Landlady *
5. Julius *
6. Magilla *
7. Melt *
8. Wolfman's * >
9. I Wanna Be Like You *
10. Oh Kee Pa * >
11. Suzy *
12. e: banter
13. e: Hood
14. e: Cavern *


Notes:

Warts and all...

Drop-out and missing music at ~1:14 of s1t01. s1t04 cuts. The rest of Set I is missing due to digi-noise and a broken DAT...

Drop-outs and a couple of zaps ~6:00 of s2t11.

* w/ Giant Country Horns.

Mike Gallick, baritone sax
Carl Gerhard, trumpet
Dave Grippo, alto sax
Don Glasgo, trombone
Chris Peterman, tenor sax
Joey Sommerville, trumpet

Terry Watts






Media Files:
http://bt.etree.org/download.php/594284/ph1994-04-04.138879.flac1648.torrent




Jimmy Herring And The Invisible Whip Terminal West Atlanta, Georgia 7/25/2017 (Schoeps CCM4V'S FOB)

2017-07-26T05:35:51

Jimmy Herring And The Invisible Whip Terminal West Atlanta, Georgia 7/25/2017 Source: Schoeps CCM4V's(Din)>Lunatec V2>Benchmark AD2K> Sound Devices 722 (24/44) FOB/DFC/KFC/ZFC/AARP Clamped To The Rail Of The Balcony DSP: Sound Devices 722>Sound Forge 10.0>CD Wave>flac(16) ID3 Tagged In Foobar 2000 Recorded By: Z-Man Seeded By: Z-Man Disc I 01 Greeting 02 Matt's Funk 03 Black Satin 04 Sketch Ballad 05 Les Brers In A Minor 06 Band Introductions 07 Jungle Book 08 New Moon 09 Scapegoat Blues Disc II 01 Sketch Slow 6/8 02 ketch Up Tempo 03 Rainbow 04 Hope 05 Slopes Encore: 06 1911 Jimmy Herring - Guitar Jeff "Apt Q 258" Sipe - Drums Kevin Scott - Bass Matt Slocum - Keyboards Jason Crosby - Keyboards And Fiddle jimmy2017-07-25d01t01.flac:a166a61de39ae9c863b1bc5b30086c09 jimmy2017-07-25d01t02.flac:9b538c8f2c5b22330883ba711822de8b jimmy2017-07-25d01t03.flac:420b57900a58fb8351e70290868f2f4b jimmy2017-07-25d01t04.flac:8d19bd7ce761bdda7e932394236ad9db jimmy2017-07-25d01t05.flac:5c5445254d4a42cdd63d9624f4fd7294 jimmy2017-07-25d01t06.flac:bd8e2d7faac36cceff307b493f162de9 jimmy2017-07-25d01t07.flac:a1081828ba2ba35968e0218267bb050a jimmy2017-07-25d01t08.flac:082c976ec9766a4a1725626d78c1f949 jimmy2017-07-25d01t09.flac:4c2c2abd49e4ef3f6a7ac1736721cf04 jimmy2017-07-25d02t01.flac:66a9eec4c119854f5523021c0f9b94d2 jimmy2017-07-25d02t02.flac:a6fe9489f9fc85ef40e4c385b57b78a1 jimmy2017-07-25d02t03.flac:5ccd8c63ec26f5d9c4b12a7b000bae3e jimmy2017-07-25d02t04.flac:d2b81ad4a1a9b182c0fc664289aa77cb jimmy2017-07-25d02t05.flac:317e0c0193313b78da6eb33bc8eedf6c jimmy2017-07-25d02t06.flac:a8adddffee693390757821bb941e6776 length expanded size cdr WAVE problems fmt ratio filename 0:19.74 3525692 B --- -- ---xx flac 0.3320 jimmy2017-07-25d01t01.flac 6:05.07 64402508 B --- -- ---xx flac 0.5898 jimmy2017-07-25d01t02.flac 10:30.41 111228476 B --- -- ---xx flac 0.5851 jimmy2017-07-25d01t03.flac 7:56.10 83989964 B --- -- ---xx flac 0.5430 jimmy2017-07-25d01t04.flac 6:58.65 73888124 B --- -- ---xx flac 0.5804 jimmy2017-07-25d01t05.flac 0:40.29 7124252 B --- -- ---xx flac 0.4402 jimmy2017-07-25d01t06.flac 11:18.67 119756828 B --- -- ---xx flac 0.5443 jimmy2017-07-25d01t07.flac 7:57.48 84255740 B --- -- ---xx flac 0.5697 jimmy2017-07-25d01t08.flac 6:41.37 70823468 B --- -- ---xx flac 0.6050 jimmy2017-07-25d01t09.flac 11:22.43 120405980 B --- -- ---xx flac 0.5727 jimmy2017-07-25d02t01.flac 8:46.49 92901692 B --- -- ---xx flac 0.5903 jimmy2017-07-25d02t02.flac 8:24.11 88931516 B --- -- ---xx flac 0.5429 jimmy2017-07-25d02t03.flac 9:37.59 101921612 B --- -- ---xx flac 0.5676 jimmy2017-07-25d02t04.flac 8:25.74 89256092 B --- -- ---xx flac 0.5887 jimmy2017-07-25d02t05.flac 11:11.56 118496156 B --- -- ---xx flac 0.5856 jimmy2017-07-25d02t06.flac 116:17.70 1230908100 B 0.5717 (15 files) [...]


Media Files:
http://bt.etree.org/download.php/594282/jimmy2017-07-25.flac16.torrent




Trey Anastasio Band 10-14-06

2017-07-26T03:59:42

Trey Anastasio
10.14.2006
House of Blues
North Myrtle Beach, SC

Source: AT853 > SP batt box > BM2p+ mod UA-5 > JB3

Notes: tape cut at track 4 due to audience member falling on gear. Only a few seconds lost.

Disc One
Set One

01. Night Speaks
02. Shine
03. Dark & Down
04. \\Sweet Dreams Melinda
05. Wherever You Find It
06. Simple Twist up Dave

Disc Two

01. Shadow
02. Spin
Set Two
03. Host Across the Potomac
04. Mr. Completely
05. Ether Sunday

Disc Three

01. Love that Breaks all Lines
02. Plasma
03. Dragonfly
04. Encore Break
Encore
05. Mud City*

*w/ "I want to take you higher" Chant


Media Files:
http://bt.etree.org/download.php/594281/trey06-10-14.torrent




gd1993-03-17.138877.AMS.ST-250.S2.Ammons.Noel.t-flac16

2017-07-26T01:30:39

Grateful Dead

March 17, 1993
Capital Centre,
Landover, MD
Set II w/ Set I filler


From The Ammons Archive

unknown taper: AMS ST-250 Soundfield mic > Modified Sony D10Pro> DAT - FOB

John Ammons Transfer from his DAT clone of the master; Tascam DA20 Mark II DAT > Roland SRC-2 sample rate/format converter (from SPDIF to Optical) > Mac Mini > Audacity 3.0 at 48K > Wave.

Edited & Mastered in Audacity by Joe Noel > flac 16/48.

Checksum & tags created in xACT.

Notes:
- mic pickup pattern likely set to Blumlein configuration
- claps, screams & whistles truncated
- the Good Lovin' hand clapper is the one that got away
- minor digi static in a few spots
- * Dart Star is first verse only
- * final/last Handsome Cabin Boy Jam - 09-12-90
- * first "Lucy In The Sky With Diamonds"


-Set II-
s2t01 - tuning
s2t02 - Picasso Moon
s2t03 - Crazy Fingers ->
s2t04 - Playing in the Band ->
s2t05 - Dark Star -> *
s2t06 - Drums ->
s2t07 - Space ->
s2t08 - Handsome Cabin Boy jam -> *
s2t09 - The Other One ->
s2t10 - The Days Between ->
s2t11 - Good Lovin'
s2t12 - encore break
s2t13 - Lucy In The Sky With Diamonds *

filler (Set I)
s1t01 - Shakedown Street
s1t05 - Ramble on Rose
s1t06 - Eternity


Tagging notes:
Show information is embedded within the header of each flac file.
It will display on any player capable of directly playing flac files.
If converted to wav during processing, all tags will be stripped,
however audio data will remain unaffected. If you must
transcode to a lossy format, do so directly Flac > Lossy.
Use ffp or st5 to validate audio integrity.
Md5 values will change if tagging is altered.
(J.Noel 24 July 2017)


Media Files:
http://bt.etree.org/download.php/594280/gd1993-03-17.138877.AMS.ST-250.S2.Ammons.Noel.t-flac16.torrent




gd1992-06-25.138876.FOB.B&K4011.Ammons.Noel.t-flac16

2017-07-26T01:19:57

Grateful Dead

June 25, 1992
Soldier Field,
Chicago, IL
Set II only


From The Ammons Archive

unknown taper: B&K 4011 at 110 degrees ORTF > Neumann PS > Sony D10Pro - FOB

John Ammons Transfer: from his DAT clone of the master. Tascam DA20 Mark II DAT > Roland SRC-2 sample rate/format converter (from SPDIF to Optical) > Mac Mini > Audacity 3.0 at 48K > Wave.

Edited & Mastered in Audacity by Joe Noel > flac 16/48.

Checksum & tags created in xACT.

Notes:
- Steve Miller Band opened
- last "Schoolgirl": 08-22-87 [374]
- Love Light has Ron Mckernan's stamp of approval
- with James Cotton sitting in, Gloria reaches its zenith (#9 out of 16)


-Set II-
s2t01 - Iko Iko *
s2t02 - Good Morning Little School Girl **
s2t03 - Way To Go Home
s2t04 - Saint Of Circumstance ->
s2t05 - He's Gone ->
s2t06 - Drums ->
s2t07 - Space ->
s2t08 - The Wheel ->
s2t09 - So Many Roads ->
s2t10 - All Along The Watchtower -> *
s2t11 - Turn On Your Love Light **
s2t12 - encore break
s2t13 - Gloria **

* w/ Steve Miller, guitar
** w/ Miller, guitar & James Cotton, harp


Tagging notes:
Show information is embedded within the header of each flac file.
It will display on any player capable of directly playing flac files.
If converted to wav during processing, all tags will be stripped,
however audio data will remain unaffected. If you must
transcode to a lossy format, do so directly Flac > Lossy.
Use ffp or st5 to validate audio integrity.
Md5 values will change if tagging is altered.
(J.Noel 24 July 2017)


Media Files:
http://bt.etree.org/download.php/594279/gd1992-06-25.138876.FOB.B&K4011.Ammons.Noel.t-flac16.torrent




gd1984-06-23.138874.aud.lamarre.berger.flac24

2017-07-26T01:17:17

Grateful Dead
6/23/84
City Island,
Harrisburg, PA


source: aud cassette master
taped by Doug Lamarre

sennheiser 441’s > sony d5
maxell xlIIS90’s, dolby b
to left of board

nakamichi dragon/b > benchmark adc1 @ 24/96
transferred - Rob Berger 2017


set I
01 - Alabama Getaway >
02 - The Promised Land
03 - Peggy-O
04 - Little Red Rooster
05 - Brown Eyed Women
06 - My Brother Esau
07 - Big Railroad Blues
08 - The Music Never Stopped >
09 - Don't Ease Me In


set II
01 - Touch Of Grey
02 - Estimated Prophet >
03 - Eyes Of The World >
04 - Drums >
05 - Space >
06 - Truckin' > Spoonful Jam >
07 - Black Peter >
08 - Around And Around
09 - Goin' Down The Road Feeling Bad >
10 - One More Saturday Night
11 - e: Keep Your Day Job


Media Files:
http://bt.etree.org/download.php/594278/gd1984-06-23.138874.aud.lamarre.berger.flac24.torrent




gd1984-06-23.138873.aud.lamarre.berger.flac16

2017-07-26T01:14:22

Grateful Dead
6/23/84
City Island,
Harrisburg, PA


source: aud cassette master
taped by Doug Lamarre

sennheiser 441’s > sony d5
maxell xlIIS90’s, dolby b
to left of board

nakamichi dragon/b > benchmark adc1 @ 24/96
transferred - Rob Berger 2017


set I
01 - Alabama Getaway >
02 - The Promised Land
03 - Peggy-O
04 - Little Red Rooster
05 - Brown Eyed Women
06 - My Brother Esau
07 - Big Railroad Blues
08 - The Music Never Stopped >
09 - Don't Ease Me In


set II
01 - Touch Of Grey
02 - Estimated Prophet >
03 - Eyes Of The World >
04 - Drums >
05 - Space >
06 - Truckin' > Spoonful Jam >
07 - Black Peter >
08 - Around And Around
09 - Goin' Down The Road Feeling Bad >
10 - One More Saturday Night
11 - e: Keep Your Day Job


Media Files:
http://bt.etree.org/download.php/594277/gd1984-06-23.138873.aud.lamarre.berger.flac16.torrent




Interstellar Boys - 2017-07-23 - Home Team BBQ Downtown - Charleston, SC *Peluso subcards/SBD matrix*

2017-07-25T20:51:05

Interstellar Boys
Home Team BBQ - Downtown
Charleston, SC
July 23, 2017 [Sunday]

****Team Dirty South Recording****

source: Peluso cemc6/ck21 [stage lip/sky Rainey/8' split] -> Sound Devices MP-2 + Soundboard -> Tascam DR-680 [24/48]
transfer: DR-680 -> Wavelab 6.1 [matrix/fades] -> CD Wave 1.98 -> Wavelab 6.1 [Crystal/UV22HR] -> TLH [flac/8] -> FooBar

recorded by: Chris Davis and George

Set 1:
01 - tuning
02 - Who Do You Belong To?
03 - Coliseum
04 - Gunner
05 - Battle of Bull Run
06 - Reverend Jacob Nightrain
07 - Tennessee Before Daylight
08 - Pretty Girls in Summer Dresses
09 - Fastest Horse

Set 2:
01 - Clinic Cynic
02 - Istanbul
03 - The Waker
04 - War at the End of the World

Set 3:
01 - Happy Child ->
02 - The Viper ->
03 - Yellow Ribbons/Powderfinger

*After the Waker, a digital noise became audible in the sbd feed, as well as through the right stack. Second set mixed as creatively as possible to dampen this.


Interstellar Boys:
Todd Nance – Drums, Vocals
Daniel Hutchens – Guitar, Vocals
Jerry Joseph – Guitar, Vocals
Sam Holt – Guitar, Vocals
John Neff – Guitar, Pedal Steel
Jon Mills – Bass


Media Files:
http://bt.etree.org/download.php/594276/interstellarboys2017-07-23.peluso.flac16.torrent




Phish - 2017-07-23 - Baker's Dozen - Red Velvet - AT4031 - 24 bit

2017-07-25T20:49:35

Phish
Madison Square Garden
New York, NY
7/23/2017
Baker's Dozen Night 3
Flavor of the Night - Red Velvet

Audio-Technica AT4031s (OTS, PAS) > GAK Cables > Zoom H6 (@24/48)
mastered in SoundForge v10 > tracked in CDWav > encoded in TLC > tagged in Tag & Rename

recorded, mastered, tracked, tagged, and seeded by djphrayz

Set 1
1. Sunday Morning
2. Axilla
3. Your Pet Cat >
4. Back on the Train
5. How Many People Are You
6. Glide
7. Theme From the Bottom >
8. It's Ice >
9. More

Set 2
1. AC/DC Bag >
2. Wolfman's Brother >
3. Twist >
4. Waves >
5. Miss You
6. Boogie On Reggae Woman
7. Wading in the Velvet Sea

Encore
8. Sweet Jane


Media Files:
http://bt.etree.org/download.php/594275/ph2017-07-23.24bit.torrent




Phish - 2017-07-23 - Baker's Dozen - Red Velvet - AT4031 - 16 bit

2017-07-25T20:48:06

Phish
Madison Square Garden
New York, NY
7/23/2017
Baker's Dozen Night 3
Flavor of the Night - Red Velvet

Audio-Technica AT4031s (OTS, PAS) > GAK Cables > Zoom H6 (@24/48)
mastered in SoundForge v10 > tracked in CDWav > encoded in TLC > tagged in Tag & Rename

recorded, mastered, tracked, tagged, and seeded by djphrayz

Set 1
1. Sunday Morning
2. Axilla
3. Your Pet Cat >
4. Back on the Train
5. How Many People Are You
6. Glide
7. Theme From the Bottom >
8. It's Ice >
9. More

Set 2
1. AC/DC Bag >
2. Wolfman's Brother >
3. Twist >
4. Waves >
5. Miss You
6. Boogie On Reggae Woman
7. Wading in the Velvet Sea

Encore
8. Sweet Jane


Media Files:
http://bt.etree.org/download.php/594274/ph2017-07-23.16bit.torrent




Jeff Massey (of The Steepwater Band) solo acoustic - 2017-07-11 - Berwyn, IL

2017-07-25T16:21:10

Jeff Massey (solo acoustic)
Harlem Ave. Lounge
Berwyn, IL
July 11, 2017

Source: Sennheiser e914's > Sound Devices 722 (24/48, 40 Hz HPF @ 12 dB/oct.)
Transfer: CF card > Audiogate (fades, tracking, dither/re-sample to 16/44.1) > xACT (flac 8 w/ SBA & tags)

Recorded & transferred by taperjoe

Set 1:
101. Girl From The North Country
102. Statesboro Blues
103. At The Fall Of The Day
104. Remember The Taker
105. Walkin' Blues
106. Collision
107. Dance Me A Number
108. Cinnamon Girl
109. Darlin' I've Been Dreamin' (debut?)
110. Further On Up The Road
111. Don't Think Twice, It's Alright
112. Shake Your Faith
113. Hideaway
114. Roadblock
115. Hard As Stone
116. I Can't Be Satisfied
117. Come On In My Kitchen

Set 2:
201. Intro & tuning
202. Key To The Highway
203. All Along The Watchtower
204. Human Highway
205. Dead Flowers
206. Indiana Line
207. Steel Sky
208. Black Mountain Side
209. Come On Down
210. Dust My Broom
211. The Stars Look Good Tonight
212. Vanishing Girl
213. Roll Another Number
214. Truck Stop Girl
215. Willin'
216. Don't Cry No Tears
217. Carol
218. Bring On The Love
219. That's Allright (debut?)
220. Between Her And The Morning medley*
221. Jessica
222. Knockin' On Heaven's Door

* Between Her And The Morning > You Got To Take Sick And Die Some Of These Days > My Babe > BHATM

Enjoy!!


Media Files:
http://bt.etree.org/download.php/594273/Jeff_Massey2017-07-11.flac16.torrent




Phish 1995-06-13 Riverport Amph. Maryland Heights, MO AKG460 flac1648 *NEW SOURCE*

2017-07-25T14:01:17

** NEW SOURCE TO CIRCULATION **

Phish
1995-06-13
Riverport Amphitheatre
Maryland Heights, MO

Source: DAUD/AKG460,D10proII (Jeff Jordan)

Seed: Cloned by Rich

Transfer: DA-P1 > S/PDIF > HD-P2 > Compact Flash/WAV/48/16
[straight through direct digital, except edits noted below]
wavbreaker, shntool, metaflac
"phisham-000" 2017-07
e-tree 138875
transferred by "phisham" John Isham
[formerly isham@jeremy.ecs.umass.edu - now defunct]


Edits: See below, raw unedited files also included

Set 1: (76:32)

01: Runaway Jim (8:16)
02: Foam (10:09)
03: Bouncing Around The Room (3:44)
04: Stash (11:11)
05: Strange Design (2:54)
06: Taste (6:36)
07: Reba (14:05) [1]
08: Hold Your Head Up > Terrapin > Hold Your Head Up (8:23)
09: Sparkle (3:58)
10: Chalk Dust Torture (7:13) [2]

Set 2+Encore: (76:55)

01: David Bowie (17:20) [3]
02: The Lizards (10:47)
03: Axilla II (4:25)
04: Theme From The Bottom (10:35)
05: Acoustic Army (3:48) [4]
06: Harry Hood (14:25)
07: Golgi Apparatus (4:47)

Encore:

08: Sweet Adeline (2:41) [5]
09: Julius (8:07) [6]

Story:

I was an active taper in the mid-90's, mostly Phish, but also a few
other bands, including some locals. I've wanted to transfer my DATs
to computer for many years, but every time I tried, something bad
happened, like a tape break on a master, so I got a bit gun-shy. I
recently bought a HD-P2 off ebay for direct digital transfers
from my trusty old DA-P1, and figured I should start with a show where
I had multiple clones, in case something went wrong. That's why I
chose this show. Then I noticed this source isn't in e-tree, so this
is my first upload to e-tree, hopefully the first of many. It's not my
recording, there's another taper to thank for that, perhaps Jeff Jordan,
that was the name on my tape.


Edits: (raw, un-edited files also included)

[1] ph1995-06-13d1t07 Reba

03:21.30 small drop-out, cut 1624 samples

[2] ph1995-06-13d1t10 Chalkdust Torture

05:43 small drop-out, cut 1453 samples

[3] ph1995-06-13d2t01 David Bowie

16:13 small drop-out, cut 1661 samples

[4] ph1995-06-13d2t05 Acoustic Army

normalized (Audacity v2.1.3 - remove DC bias, amplitude -1.0dB)

[5] ph1995-06-13d2t08 Sweet Adeline

02:12 small drop-out corrected by copying right channel to left channel
compressed (Audacity v2.1.3 - threshold -40, floor -60, ratio 3:1, attack 0.2,
release 1.0, make-up on)

[6] ph1995-06-13d2t09 Julius

01:19 small digi-noise, copied L to R
01:45 small digi-noise, cross-faded to one of the C1000 sources


Media Files:
http://bt.etree.org/download.php/594272/ph1995-06-13.akg460.138875.flac16.torrent