Subscribe: bt.etree.org
http://bt.etree.org/rss/bt_etree_org.rdf
Added By: Feedage Forager Feedage Grade B rated
Language: English
Tags:
akg  blues  flac flac  flac players  flac splintered  flac  new  players flac  players  set  splintered flac  splintered 
Rate this Feed
Rate this feedRate this feedRate this feedRate this feedRate this feed
Rate this feed 1 starRate this feed 2 starRate this feed 3 starRate this feed 4 starRate this feed 5 star

Comments (0)

Feed Details and Statistics Feed Statistics
Preview: bt.etree.org

bt.etree.org



etree.org BitTorrent Tracker



Published: 2017-04-29T11:15:01

Last Build Date: 2017-04-29T11:15:01

Copyright: Copyright 2013, etree.org
 



Grateful Dead 1981-10-06 Audience Master (new source) Flac 24

2017-04-29T06:43:32

Grateful Dead Rainbow Theatre, London, England 10/06/1981 Source: Audience recording > Sony ECM-99 > JVC CD-1635 > Master Cassettes (C90 Maxell UD XLII x 3) Taped by Peter Williams from middle of stalls about 1/3 back from front of stage Transfer: Cassette > Nakamichi CD1 > Tascam DR-100mkII > wav 24/176.4 Lineage: wav 24/176.4 > Adobe Audition CC > iZotope RX5 Advanced > iZotope Ozone 5 Advanced > iZotope RX5 Advanced wav 24/96 > CD Wave >TLH > Flac 24 Set I 01 tuning 02 Shakedown Street > 03 Minglewood Blues > 04 It Must Have Been The Roses 05 Little Red Rooster 06 Althea 07 //Me And My Uncle > 08 Mexicali Blues 09 Good Time Blues (aka Never Trust A Woman) 10 Cumberland Blues 11 Looks Like Rain 12 Might As Well Set II 01 crowd/tuning 02 Man Smart (Woman Smarter) 03 crowd 04 High Time 05 crowd 06 Estimated Prophet > 07 He's Gone > 08 Drums > 09 Space (includes Blues For Allah Jam) > 10 The Wheel > 11 Sugar Magnolia > 12 Stella Blue > 13 Good Lovin' 14 encore break/tuning encore 15 Sunshine Daydream > 16 Brokedown Palace Comments: Peter is not and never was a taper, he borrowed the tape recorder and microphone so that he could record this as a memory of the night. However, all things considered he made a pretty good job of it. This is the first time that this complete show has circulated as an aud and a very good one it is too. Notes: - All tracks have been pitch corrected - The following patches have been put in using shnid 126571 (recorded by Richie Stankiewicz and edited by Andrew F. all of track 1 for Set II all of "Man Smart (Woman Smarter)" the first 21 seconds of track 3 Set II "He's Gone" - 9:10-9:47 "Sugar Magnolia" - 0:04-0:32 - I made a few level adjustments. - The Start of "Me And My Uncle" is clipped, first 3 or 4 seconds missing. Thanks to Richie Stankiewicz and Andrew F for the patch source Thanks to Peter for lending me his masters transferred, edited and mastered SIRMick April 2017 shntool output: length expanded size cdr WAVE problems fmt ratio filename 0:52.07 9189308 B --- -- ---xx flac 0.5066 gd1981-10-06s1t01.flac 11:59.31 126904556 B --- -- ---xx flac 0.5804 gd1981-10-06s1t02.flac 7:30.70 79544684 B --- -- ---xx flac 0.6264 gd1981-10-06s1t03.flac 6:31.16 69010076 B --- -- ---xx flac 0.6151 gd1981-10-06s1t04.flac 8:19.70 88188284 B --- -- ---xx flac 0.6355 gd1981-10-06s1t05.flac 8:26.51 89378396 B --- -- ---xx flac 0.6184 gd1981-10-06s1t06.flac 2:52.23 30394940 B --- -- ---xx flac 0.6450 gd1981-10-06s1t07.flac 4:57.62 52536668 B --- -- ---xx flac 0.6426 gd1981-10-06s1t08.flac 7:19.67 77597228 B --- -- ---xx flac 0.6171 gd1981-10-06s1t09.flac 4:58.27 52630748 B --- -- ---xx flac 0.6440 gd1981-10-06s1t10.flac 9:23.24 99369692 B --- -- ---xx flac 0.5839 gd1981-10-06s1t11.flac 4:36.72 48855788 B --- -- ---xx flac 0.6409 gd1981-10-06s1t12.flac 0:34.65 6150524 B --- -- ---xx flac 0.4892 gd1981-10-06s2t01.flac 5:12.21 55086236 B --- -- ---xx flac 0.5931 gd1981-10-06s2t02.flac 1:33.69 16567532 B --- -- ---xx flac 0.5342 gd1981-10-06s2t03.flac 8:41.20 91951484 B --- -- ---xx flac 0.6198 gd1981-10-06s2t04.flac 1:12.28 12766700 B --- -- ---xx flac 0.5697 gd1981-10-06s2t05.flac 13:54.22 147169388 B --- -- ---xx flac 0.6200 gd1981-10-06s2t06.flac 14:40.30 155302604 B --- -- ---xx flac 0.6115 gd1981-10-06s2t07.flac 10:20.62 109513868 B --- -- ---xx flac 0.5999 gd1981-10-06s2t08.flac 11:10.39 118279772 B --- -- ---xx flac 0.5297 gd1981-10-06s2t09.flac 7:23.33 78222860 B --- -- ---xx flac 0.5917 gd1981-10-06s2t10.flac [...]


Media Files:
http://bt.etree.org/download.php/592646/gd1981-10-06.Sony ECM-99.williams.sirmick.138198.sbeok.flac24-96.torrent




Grateful Dead 1981-10-06 Audience Master (new source) Flac 16

2017-04-29T06:38:40

Grateful Dead Rainbow Theatre, London, England 10/06/1981 Source: Audience recording > Sony ECM-99 > JVC CD-1635 > Master Cassettes (C90 Maxell UD XLII x 3) Taped by Peter Williams from middle of stalls, just right of centre and about 1/3 back from front of stage Transfer: Cassette > Nakamichi CD1 > Tascam DR-100mkII > wav 24/176.4 Lineage: wav 24/176.4 > Adobe Audition CC > iZotope RX5 Advanced > iZotope Ozone 5 Advanced > iZotope RX5 Advanced wav 16.44.1 > CD Wave >TLH > Flac 24 Set I 01 tuning 02 Shakedown Street > 03 Minglewood Blues > 04 It Must Have Been The Roses 05 Little Red Rooster 06 Althea 07 //Me And My Uncle > 08 Mexicali Blues 09 Good Time Blues (aka Never Trust A Woman) 10 Cumberland Blues 11 Looks Like Rain 12 Might As Well Set II 01 crowd/tuning 02 Man Smart (Woman Smarter) 03 crowd 04 High Time 05 crowd 06 Estimated Prophet > 07 He's Gone > 08 Drums > 09 Space (includes Blues For Allah Jam) > 10 The Wheel > 11 Sugar Magnolia > 12 Stella Blue > 13 Good Lovin' 14 encore break/tuning encore 15 Sunshine Daydream > 16 Brokedown Palace Comments: Peter is not and never was a taper, he borrowed the tape recorder and microphone so that he could record this as a memory of the night. However, all things considered he made a pretty good job of it. This is the first time that this complete show has circulated as an aud and a very good one it is too. Notes: - All tracks have been pitch corrected - The following patches have been put in using shnid 126571 (recorded by Richie Stankiewicz and edited by Andrew F. all of track 1 for Set II all of "Man Smart (Woman Smarter)" the first 21 seconds of track 3 Set II "He's Gone" - 9:10-9:47 "Sugar Magnolia" - 0:04-0:32 - I made a few level adjustments. - The Start of "Me And My Uncle" is clipped, first 3 or 4 seconds missing. Thanks to Richie Stankiewicz and Andrew F for the patch source Thanks to Peter for lending me his masters transferred, edited and mastered SIRMick April 2017 shntool output: length expanded size cdr WAVE problems fmt ratio filename 0:52.07 9189308 B --- -- ---xx flac 0.5066 gd1981-10-06s1t01.flac 11:59.31 126904556 B --- -- ---xx flac 0.5804 gd1981-10-06s1t02.flac 7:30.70 79544684 B --- -- ---xx flac 0.6264 gd1981-10-06s1t03.flac 6:31.16 69010076 B --- -- ---xx flac 0.6151 gd1981-10-06s1t04.flac 8:19.70 88188284 B --- -- ---xx flac 0.6355 gd1981-10-06s1t05.flac 8:26.51 89378396 B --- -- ---xx flac 0.6184 gd1981-10-06s1t06.flac 2:52.23 30394940 B --- -- ---xx flac 0.6450 gd1981-10-06s1t07.flac 4:57.62 52536668 B --- -- ---xx flac 0.6426 gd1981-10-06s1t08.flac 7:19.67 77597228 B --- -- ---xx flac 0.6171 gd1981-10-06s1t09.flac 4:58.27 52630748 B --- -- ---xx flac 0.6440 gd1981-10-06s1t10.flac 9:23.24 99369692 B --- -- ---xx flac 0.5839 gd1981-10-06s1t11.flac 4:36.72 48855788 B --- -- ---xx flac 0.6409 gd1981-10-06s1t12.flac 0:34.65 6150524 B --- -- ---xx flac 0.4892 gd1981-10-06s2t01.flac 5:12.21 55086236 B --- -- ---xx flac 0.5931 gd1981-10-06s2t02.flac 1:33.69 16567532 B --- -- ---xx flac 0.5342 gd1981-10-06s2t03.flac 8:41.20 91951484 B --- -- ---xx flac 0.6198 gd1981-10-06s2t04.flac 1:12.28 12766700 B --- -- ---xx flac 0.5697 gd1981-10-06s2t05.flac 13:54.22 147169388 B --- -- ---xx flac 0.6200 gd1981-10-06s2t06.flac 14:40.30 155302604 B --- -- ---xx flac 0.6115 gd1981-10-06s2t07.flac 10:20.62 109513868 B --- -- ---xx flac 0.5999 gd1981-10-06s2t08.flac 11:10.39 118279772 B --- -- ---xx flac 0.5297 gd1981-10-06s2t09.flac 7:23.33 78222860 B ---[...]


Media Files:
http://bt.etree.org/download.php/592645/gd1981-10-06.Sony ECM-99.williams.sirmick.138197.sbeok.flac16.torrent




gd April 29 shnids: 114350(1971), 18362(1971 garcia/nrps), 13756(1989), 96344(1990 garcia)

2017-04-29T05:40:54

NOTE: 1972.04.29 not included as it is available as an official release (Europe '72) 1977.04.29, 1980.04.29 and 1984.04.29 not included since only audience recordings circulate (and I'm a sbd snob) ****************************************************************************************** NEW RIDER OF THE PURPLE SAGE Thursday, April 29, 1971 Fillmore East - New York, NY SBDMR > Alesis Masterlink > CDRx? > EAC > SHN 7 inch BASF Master Reels recorded at 7 1/2 ips. Playback on a Revox A77 reel to reel deck. DISC ONE [47:51] 01 [03:19] Six Days On The Road 02 [05:35] Runnin' Back to You 03 [04:12] I Don't Know You 04 [04:20] Sailin' 05 [04:24] Henry 06 [11:07] Dirty Business 07 [05:37] Superman 08 [04:16] Lodi 09 [05:01] Glendale Train DISC TWO [38:47] 01 [04:11] Fair Chance to Know 02 [07:50] The Weight 03 [07:32] Portland Woman 04 [07:10] Last Lonely Eagle 05 [04:47] Louisiana Lady 06 [07:17] Honky Tonk Women ********************************************************************************************* Grateful Dead - April 29, 1971 Fillmore East - New York, NY Recording Info: SBD -> 16 Track Master Reel -> Dat (44.1k) Transfer Info: Dat (Sony R500) -> Tascam SS-R05 -> Samplitude Professional v11.2 -> FLAC (3 Discs Audio / 2 Discs FLAC) All Transfers and Mastering By Charlie Miller charliemiller87@earthlink.net June 26, 2011 Patch Info: SBD -> Master Reel -> FLAC (shnid=105925) supplies: Me And My Uncle (complete track) Loser (complete track) Greatest Story Ever Told (3:02 - end of track) Notes: -- Set 2 is seamless Set 1: d1t01 - Truckin' d1t02 - Bertha d1t03 - It Hurts Me Too d1t04 - Cumberland Blues -> d1t05 - Me And My Uncle d1t06 - Bird Song d1t07 - Playing In The Band d1t08 - Loser d1t09 - Dark Hollow d1t10 - Hard To Handle d1t11 - Ripple d1t12 - Me And Bobby McGee d1t13 - Casey Jones Set 2: d2t01 - Morning Dew d2t02 - New Minglewood Blues d2t03 - Sugar Magnolia d2t04 - Black Peter d2t05 - Beat It On Down The Line d2t16 - I Second That Emotion d2t07 - Alligator -> d2t08 - Drums -> d2t09 - Jam -> d2t10 - Goin' Down The Road Feeling Bad -> d2t11 - Cold Rain And Snow d2t12 - China Cat Sunflower -> d2t13 - I Know You Rider d3t01 - Greatest Story Ever Told -> d3t02 - Johnny B. Goode d3t03 - Uncle John's Band Encore: d3t04 - In The Midnight Hour -> d3t05 - We Bid You Goodnight ******************************************************************************************** Grateful Dead 4/29/89 Irvine Meadows Amphitheatre Irvine, CA Master Soundboard Cassette > CDR CD Mastering by Scott Clugston 11/22/02 Disc 1 1st Set 1. Tuning 2. Hell In A Bucket> 3. Sugaree 4. Tuning 5. Walkin' Blues 6. BEW 7. Tuning / Funiculi Funicula 8. Memphis Blues 9. Built To Last 10. Blow Away> 11. OMSN Disc 2 2nd Set 1. China Cat Sunflower> 2. I Know You Rider 3. LLR 4. He's Gone> 5. Spoonful> 6. Drums// Disc 3 1. //Space> 2. I Will Take You Home> 3. The Other One> 4. Wharf Rat> 5. Throwing Stones> 6. Lovelight Encore 7. US Blues ******************************************************************************************** Jerry Garcia, Pete Sears, Nick Gravenites and Animal Mind South of Market Cultural Center San Francisco, CA 04/29/1990 Source: SBD > DAT > DAT Transfer: DAT > Tascom DA-40 > COAX to COAX cable > M-AUDIO Audiophile 2496 > CD Wave > TLH > flac24 > Flac Frontend > wav 24/48 > Adobe Audition > Wavelab with iZotope Ozone > Izotope RX Advanced > wav 16/44.1 > CD Wave > TLH > flac16 Set I 01 Born In Chicago 02 Chicago Is Your Home 03 Tough As Nails 04 I'll Change Your Flat Tire Merle 05 Small Walk-In Box 06 Band Intro > 07 Down In The Bottom Set II (partial?) 08 Get Together 09 Dekalb Blues 10 instrumental ??? Jerry Garcia - guitar Pete Sears - piano, accordion Nick Gravenites - guitar, vocals David Hayes - bass John Wade - drums Notes: - the gain in the right channel has been increased by 1.5 - 2 decibels Comments: Brian Wilson Defense Committee benefit[...]


Media Files:
http://bt.etree.org/download.php/592644/April29history_ET.torrent




Sarah Borges 2017-04-26 World Cafe Live Philadelphia, PA Schoeps MK4V

2017-04-28T23:49:09

Sarah Borges
2017-04-26 World Cafe Live
Philadelphia, PA USA

source : schoeps mk4v (din) > kc5 (mod) > nbox platinum > roland r5 > 24/44
adobe audition > ozone 5 > xact 2.39 > flac 16/44
taper : edtyre :
location : clamped to mezz rail center

Opened for Dave Alvin & The Guilty Ones

Intro
I'm Going to Live the Life I Sing About in My Son
Daniel Lee
Caught By The Rain
I Can't Change It
The Day We Met
Same Old 45
On the Corner
Cry One More Time


Media Files:
http://bt.etree.org/download.php/592643/sarahborges2017-04-26.aud.mk4v.edtyre.flac16.torrent




Dave Alvin & The Guilty Ones 2017-04-26 World Cafe Live Philadelphia, PA Schoeps MK4V

2017-04-28T23:45:26

Dave Alvin & The Guilty Ones
2017-04-26 World Cafe Live
Philadelphia, PA USA

source : schoeps mk4v (din) > kc5 (mod) > nbox platinum > roland r5 > 24/44
adobe audition > ozone 5 > xact 2.39 > flac 16/44
taper : edtyre :
location : clamped to mezz rail center


Harlan County Line
Jubilee Train
Southern Flood Blues
Little Honey > Who Do You Love?
Johnny Ace Is Dead
Long White Cadillac
Abilene
Instrumental
Shenandoah
Ashgrove
Dry River
4th of July
E
Open Up the Back Door #
Marie, Marie
Band Intros > So Long Baby,Goodbye


# w/ Sarah Borges - vocals

Dave Alvin - guitar, vocals
Chris Miller - electric & slide guitar
Brad Fordham - bass, vocals
Lisa Pankratz - drums, vocals


Media Files:
http://bt.etree.org/download.php/592642/davealvin2017-04-26.aud.mk4v.edtyre.flac16.torrent




ph1988-02-26.SBD.2711.shnf

2017-04-28T22:35:05

Phish
02-26-88
Living and Learning Center, University of Vermont - Burlington, VT

Source: SBD > Cass/2
Transfer: Nak deck > HD > CDWav > SF XP 4.5 > mkwACT > SHN > CoolEdit NR > SHN

Seed, fixes, and encoding to SHN by Brendan Komala (yamar3@hotmail.com)
Hiss Reduction by Ben Mohr (bmohr@udel.edu)

----------------------------------------------------------------
Disc 1: (62:20)
----------------------------------------------------------------
-Set 1-
1. //The Curtain With (06:32)
2. Suzie Greenberg (05:45)
3. You Enjoy Myself (14:42)
4. The Man Who Stepped Into Yesterday > (03:08)
5. Avenu Malkenu > (03:12)
6. The Man Who Stepped Into Yesterday (01:09)
7. AC/DC Bag > (06:23)
8. Possum (05:25)
9. Phase Dance (08:20)
10. Good Times Bad Times (07:44)

----------------------------------------------------------------
Disc 2: (28:54)
----------------------------------------------------------------
-Set 2p-
1. Fluffhead (15:12)
2. I Didn?t Know (03:33)
3. Golgi Apparatus > (04:30)
4. Lizards// (05:39)

Notes:
-d1t01 comes in a few seconds late
-d2t01 2:00 splice?
-d2t02 3:28 splice?
-d2t03 0:00 splice?
-Tape Flips
d1t08 4:36 (45:26)
d2t04 5:40 (45:27)
-Vocals a bit muffled in L channel
-Though the Phish Companion puts the set break after Golgi, it is pretty
obvious when listening that there is no break due to the segue. Also, I
believe the set break is after GTBT since Trey states that they are going
to take a short break and be right back.

Fixes:
-Applied Cool Edit hiss reduction based on noise floor sample at
end of d2t04 (after cut-pure hiss, no music or background noise)


Media Files:
http://bt.etree.org/download.php/592641/ph1988-02-26.SBD.2711.shnf.torrent




Colonel Bruce Hampton & The Madrid Express - 2017-04-27 - The Vista - Decatur, GA [AKG C451E w/ CK3 - flac1644]

2017-04-28T16:52:52

Colonel Bruce Hampton & The Madrid Express
2017-04-27
The Vista
Decatur, GA

Source: AKG C451E w/ CK3 > Audioroot Femto > Tascam DR-680 MKII @ 2496 > SDXC
Transfer: SDXC > Samplitude Pro X3 (Build 35) > TLH v2.7.0 (flac8, ffp) > Foobar2000 v1.3.10 (Live Show Tagger)
Location: ROC, 10' high, ORTF
Recorded and processed by Jeff Mitchell (goodhunkofwood@gmail.com)
seeded to etree 2017-04-28

Set 1
s1t01 - Feelin' Good
s1t02 - Fixin' To Die
s1t03 - ?? > Got My Mojo Working
s1t04 - There Was A Time
s1t05 - I Wish That It Would Rain
s1t06 - Hey Pocky Way
s1t07 - Ride Me High
s1t08 - Don't Cry No More
s1t09 - Yield Not To Temptation

Set 2
s2t01 - Set 2 Intro
s2t02 - Kissing My Love
s2t03 - Ain't Nothin' You Can Do
s2t04 - Don't Go Into That Room
s2t05 - Space Is The Place
s2t06 - I'm So Glad
s2t07 - Basically Frightened
s2t08 - Dust My Broom
s2t09 - Let The Good Times Roll
s2t10 - Jack The Rabbit
s2t11 - Goodnight Irene
s2t12 - Wolverton Mountain

Support your local venues & artists
Buy their stuff & bring your friends


Media Files:
http://bt.etree.org/download.php/592637/colbruce2017-04-27.akg.c451e.ck3.flac1644.torrent




Colonel Bruce Hampton & The Madrid Express - 2017-04-27 - The Vista - Decatur, GA [AKG C451E w/ CK1 - flac1644]

2017-04-28T16:51:53

Colonel Bruce Hampton & The Madrid Express
2017-04-27
The Vista
Decatur, GA

Source: AKG C451E w/ CK1 > Sound Devices MixPre-D > Tascam DR-680 MKII @ 2496 > SDXC
Transfer: SDXC > Samplitude Pro X3 (Build 35) > TLH v2.7.0 (flac8, ffp) > Foobar2000 v1.3.10 (Live Show Tagger)
Location: ROC, 10' high, ORTF
Recorded and processed by Jeff Mitchell (goodhunkofwood@gmail.com)
seeded to etree 2017-04-28

Set 1
s1t01 - Feelin' Good
s1t02 - Fixin' To Die
s1t03 - ?? > Got My Mojo Working
s1t04 - There Was A Time
s1t05 - I Wish That It Would Rain
s1t06 - Hey Pocky Way
s1t07 - Ride Me High
s1t08 - Don't Cry No More
s1t09 - Yield Not To Temptation

Set 2
s2t01 - Set 2 Intro
s2t02 - Kissing My Love
s2t03 - Ain't Nothin' You Can Do
s2t04 - Don't Go Into That Room
s2t05 - Space Is The Place
s2t06 - I'm So Glad
s2t07 - Basically Frightened
s2t08 - Dust My Broom
s2t09 - Let The Good Times Roll
s2t10 - Jack The Rabbit
s2t11 - Goodnight Irene
s2t12 - Wolverton Mountain

Support your local venues & artists
Buy their stuff & bring your friends


Media Files:
http://bt.etree.org/download.php/592636/colbruce2017-04-27.akg.c451e.ck1.flac1644.torrent




Colonel Bruce Hampton & The Madrid Express - 2017-04-27 - The Vista - Decatur, GA [AKG C451E w/ CK1 & CK3 - flac1644]

2017-04-28T16:50:37

Colonel Bruce Hampton & The Madrid Express
2017-04-27
The Vista
Decatur, GA

Source: AKG C451E w/ CK1 > Sound Devices MixPre-D > Tascam DR-680 MKII @ 2496 > SDXC + AKG C451E w/ CK3 > Audioroot Femto > Tascam DR-680 MKII @ 2496 > SDXC
Transfer: SDXC > Samplitude Pro X3 (Build 35) > TLH v2.7.0 (flac8, ffp) > Foobar2000 v1.3.10 (Live Show Tagger)
Location: ROC, 10' high, ORTF
Recorded and processed by Jeff Mitchell (goodhunkofwood@gmail.com)
seeded to etree 2017-04-28

Set 1
s1t01 - Feelin' Good
s1t02 - Fixin' To Die
s1t03 - ?? > Got My Mojo Working
s1t04 - There Was A Time
s1t05 - I Wish That It Would Rain
s1t06 - Hey Pocky Way
s1t07 - Ride Me High
s1t08 - Don't Cry No More
s1t09 - Yield Not To Temptation

Set 2
s2t01 - Set 2 Intro
s2t02 - Kissing My Love
s2t03 - Ain't Nothin' You Can Do
s2t04 - Don't Go Into That Room
s2t05 - Space Is The Place
s2t06 - I'm So Glad
s2t07 - Basically Frightened
s2t08 - Dust My Broom
s2t09 - Let The Good Times Roll
s2t10 - Jack The Rabbit
s2t11 - Goodnight Irene
s2t12 - Wolverton Mountain

Support your local venues & artists
Buy their stuff & bring your friends


Media Files:
http://bt.etree.org/download.php/592635/colbruce2017-04-27.akg.c451e.ck1.ck3.flac1644.torrent




MMW - Homage at Little Five Points, Atlanta, GA - 1994-03-12.akg414.16181.t-flac16 [The Shack Project - TSP1994#4] **ID3 TAGGED FILESET**

2017-04-28T16:00:35

Medeski Martin & Wood
Homage at Little Five Points, Atlanta, GA
Saturday, March 12, 1994

[This fileset is a FLAC encoded and ID3 tagged version of http://db.etree.org/shn/16181]

Source: Mics - AKG 414's
Transfer: Sony PCM-R300 > MAudio DiO 2448 > Wavelab 4.0c (48k>44.1k resample w/UV22, gain mods*) > CDWave 1.71 > MkwACT

* +5.0dB gain applied to right channel for Set One
+2.0dB gain applied to right channel for Set Two

Transferred, tracked, and shortened by Pete Rocco (rock@global2000.net)

- Set One -
01. [05:49] - // "Knoxville Beat" >
02. [09:03] - Syeeda's Song Flute* >
03. [20:18] - Shack >
04. [14:09] - It's A Jungle In Here+
05. [13:16] - Bass Solo > Bemsha Swing/Lively Up Yourself^ [@3:12]
06. [12:55] - Worms


- Set Two -
01. [05:02] - "Screeching Flamingos"
02. [27:30] - Pakalolo > Improv [@22:48] >
03. [07:21] - Chinoiserie


* has dropouts
+ has cut in song
^ has cut in bass solo

03/20/03


=============================================================
Traders Little Helper used for FLAC encoding & creating checksums:
- SHN ST5 generated
- SHN > FLAC Level 8
- FLAC ST5 generated and matched to SHN ST5

MP3Tag (current version) used for all ID3 tagging:
- The metadata ID3 tags can be read by any player that plays FLAC files.
- ID3 tags will be stripped if converted to WAV, however audio data will be unaffected

Use FLAC ST5 to validate audio integrity.
(Alternatively, the FLAC FFP shows the same checksum values.)
FLAC MD5 values will change if ID3 tags are altered.
SHN MD5 & ST5 included for reference
T-FLAC16TAG.HTML uses FOLDER.JPG to display album art
T-FLAC16TAG.TXT provides a track-by-track breakdown of the fileset's ID3 tags
- by dug [mmwshackproject AT gmail DOT com] 2017-04-28
=============================================================
PLEASE NOTE:
shn-st5 will verify pre-tagged files
shn-md5 will verify pre-tagged files
t-flac-md5 will verify post-tagged files
t-flac-st5 will verify post-tagged files
t-flac-ffp will verify post-tagged files

The st5s contain the same checksum values for both SHN & FLAC
(the only difference being the file extension of .shn or .flac)
=============================================================


Media Files:
http://bt.etree.org/download.php/592634/mmw1994-03-12.akg414.16181.t-flac16.torrent




MMW - Flamingo's, Knoxville, TN - 1994-03-11.akg460b.87048.t-flac [The Shack Project - TSP1994#3] **ID3 TAGGED FILESET** ~ FAITU#41

2017-04-28T16:00:08

Medeski Martin & Wood Flamingo's, Knoxville, TN Friday, March 11, 1994 [This fileset is an ID3 tagged version of http://db.etree.org/shn/87048] source: akg460b/ck61>b18>denon dtr80p, by chad clark transfer: DATmaster>cd(1)>eac>cdwave>flac, by john m 2007-09-03 - One Set - disc 1 (80 min.) 01. [07:50] - "Knoxville Beat"* > Open Improv [@6:18] > 02. [13:10] - It's A Jungle In Here 03. [05:37] - "Screeching Flamingos"* 04. [15:43] - Shack 05. [05:15] - Worms > 06. [05:14] - Drum Solo > 07. [04:11] - Worms > Open Improv [@0:47] > 08. [09:27] - Friday Afternoon In The Universe > Bass Solo [@6:03] > 09. [13:31] - Chubb Sub, Clav Intro [@12:23] > - NOTE: DISCS ARE NOT SEAMLESS - disc 2 (~42 min.) 01. [10:47] - Pakalolo > 02. [12:53] - Improv > Chinoiserie [@4:34] 03. [17:46] - Moti Mo * 1st known performance notes (by john m?): i don't believe this show has ever circulated, as it's not listed in the mmw live show database. this one sounds good - if anyone out there is familiar with "flamingos" back in the day, it was not easy to make a good tape there, low ceilings, odd angle for the stage, and usually a chatty crowd... this is really a treat to hear, so check it out! i did the best i could with the tracking, we'll see how well when the setlist is posted. the show barely fit on a 2 hour DAT, so just after the last song ends john's comments are cut off the tape. thank you chad for the DAT master! ============================================================= Traders Little Helper used for creating checksums: - FLAC ST5 & MD5 generated for original FLACs - FLAC ID3 tagged files matched to original FLAC ST5 - FLAC MD5 generated for ID3 tagged files (t-flac.md5) MP3Tag (current version) used for all ID3 tagging: - The metadata ID3 tags can be read by any player that plays FLAC files. - ID3 tags will be stripped if converted to WAV, however audio data will be unaffected Use FLAC ST5 to validate audio integrity. (Alternatively, the FLAC FFP contains the same checksum values.) t-FLAC MD5 values will change if ID3 tags are altered. Original FLAC MD5 & ST5 included for reference T-FLAC16TAG.HTML uses FOLDER.JPG to display album art T-FLAC16TAG.TXT provides a track-by-track breakdown of the fileset's ID3 tags - by dug [mmwshackproject AT gmail DOT com] 2017-04-28 ============================================================= PLEASE NOTE: flac-ffp will verify pre- and post-tagged files flac-st5 will verify pre- and post-tagged files flac-md5 will verify pre-tagged files t-flac-md5 will verify post-tagged files ============================================================= ~ FRIDAY AFTERNOON IN THE UNIVERSE #41 ~ MEDESKI MARTIN & WOOD Flamingo’s, Knoxville, TN Friday, March 11, 1994 http://theshackproject.com/2017/04/28/faitu41/ http://theshackproject.com/the-shack-stream/1994-03-11/ http://db.etree.org/shn/87048 - SHACK THOUGHTS - We are LUCKY to have this show! First (known) gig of 1994 gets the year going in an exploratory nature showcasing a young band searching for their sound while already having the reigns to control what they're already able to accomplish. These early years of MMW are full of fire, and it's fantastic to hear, but it's only the beginning of so much more music ... however, it's fun to revel in these early grooves ... onto the show! - ONE SET - A new tune begins the first set of the year, "Knoxville Beat", and this is the first of 2 known performances, the 2nd being the following night. The temp title comes from this debut happening in Knoxville, and it is a cool rushed BEAT! Chris has a really cool busy line at spots coupled with this lengthy pulse to get the tune going, while Medeski lays it out fast as well and Billy drives it all. Billy keeps the drive up, but the keys and bass both drop to a more sparse gr[...]


Media Files:
http://bt.etree.org/download.php/592633/mmw1994-03-11.akg460b.87048.t-flac.torrent




Scott Holcomb Solo Acoustic Cape House Restaurant Brooklyn, New York 4/27/2017 (Schoeps CCM4V'S FOB)

2017-04-28T13:54:30

Scott Holcomb Solo Acoustic
Cape House Restaurant
Brooklyn, New York
4/27/2017

Source: Schoeps CCM4V's>Lunatec V2>Benchmark AD2K>
Sound Devices 722 (24/44)
FOB/DFC/KFC/ZFC/AARP 10' From Stage, 6 1/2' High
DSP: Sound Devices 722>Sound Forge 10.0>CD Wave>flac(16)
ID3 Tagged In Foobar 2000
Recorded By: Z-Man
Seeded By: Z-Man

Disc I

01 Lesson Learned
02 Bakersfield
03 Don't Take Me For Granted
04 Outfit
05 Sonic Reducer

* Show Notes: Scott was asked to play a solo acoustic set.I did not know what time it was to start.
After a long work day, I made it only to fin Scott began his set 15 minutes prior to my arrival. so,
here is what I was able to capture.

scott2017-04-27d01t01.flac:e05ca71ae711c6e5d5b324da657db39a
scott2017-04-27d01t02.flac:f35ac7b29128e8322a4ebd0412c54890
scott2017-04-27d01t03.flac:32092b960c767e214647c811aaba410d
scott2017-04-27d01t04.flac:fceade1bb516babb10f77742de1ee566
scott2017-04-27d01t05.flac:dcbd37969ef264ee8b1857379cf83bd3

length expanded size cdr WAVE problems fmt ratio filename
2:27.50 26048444 B --- -- ---xx flac 0.4742 scott2017-04-27d01t01.flac
3:38.68 38615180 B --- -- ---xx flac 0.4544 scott2017-04-27d01t02.flac
3:52.66 41080076 B --- -- ---xx flac 0.5446 scott2017-04-27d01t03.flac
5:15.11 55591916 B --- -- ---xx flac 0.4836 scott2017-04-27d01t04.flac
3:49.55 40525004 B --- -- ---xx flac 0.5484 scott2017-04-27d01t05.flac
19:04.25 201860620 B 0.5022 (5 files)














Media Files:
http://bt.etree.org/download.php/592632/scott2017-04-27.flac16.torrent




WSP 2017-04-21 Wanee (Line Audio cm3+om1)

2017-04-28T12:27:29

Widespread Panic
2017-04-21
Wanee - Peach Stage
Spirit of Suwanee Music Park - Live Oak, FL

Source: Line Audio cm3 (42cm,90*)> Tascam DR-70D; Line Audio om1 (66cm, 90*)> Apogee Mini-MP> Tascam DR-70D (24/48); Audacity (mix, eq, normalize, tracks, FLAC24); Foobar2000 (tags)
Recorded by Craig Taraszki (craig.taraszki@gmail.com)

01. intro
02. Ain't Life Grand
03. Love Tractor
04. Cease Fire >
05. Heaven
06. Little Kin >
07. Junior
08. Party At Your Mama's House >
09. Stop Breakin' Down Blues
10. Tall Boy
11. The Last Straw >
12. Mountain Jam >^
13. Impossible >
14. Big Wooly Mammoth >
15. Christmas Katie >
16. One Kind Favor >
17. Saint Ex
18. Imitation Leather Shoes
19. call back
20. E: Blackout Blues
21. End Of The Show

^ with Marcus King on guitar


Media Files:
http://bt.etree.org/download.php/592631/wsp2017-04-21.cm3.om1.taraszki.flac24.torrent




41 Players Bar Chord Brooklyn, New York 4/24/2017 (Schoeps CCM4V'S FOB)

2017-04-28T08:07:26

41 Players Bar Chord Brooklyn, New York 4/24/2017 Source: Schoeps CCM4V's>Lunatec V2>Benchmark AD2K> Sound Devices 722 (24/44) FOB/DFC/KFC/ZFC/AARP Stage Lip, 8' High DSP: Sound Devices 722>Sound Forge 10.0>CD Wave>flac(16) ID3 Tagged In Foobar 2000 Recorded By: Z-Man Seeded By: Z-Man Disc I 1st Set 01 ? 02 Look-Ka Py Py 03 ? 04 ? 05 Get Out My Life Woman 06 Live Wire Disc II 2nd Set 01 Lady Maonna 02 Big Chief 03 *#Java 04 #? 05 @? 06 Shaky Ground 07 Me Minus You Equals Lonliness 08 Cakewalk Into Town Disc III 3rd Set 01 ? 02 People Say 03 ? * With Benny Hill Theme # With Bruce Flowers On Keyboards @ With Ann Klein On Guitar John Deley - Keyboards And Vocals Jamie McLean - Guitar An Vocals ? - Bass Craig Dreyer - Saxophone, Percussion, And Vocals Rodney Howard - Drums 41players2017-04-24d01t01.flac:7fb442010c477d639acfd98785a84766 41players2017-04-24d01t02.flac:792f93ad2c7874a4fe2f4a7fac7f21cc 41players2017-04-24d01t03.flac:24b0fa7e6fbc573baebdded1e09670a4 41players2017-04-24d01t04.flac:d963200c24d9d32defe03e8d5ea584e0 41players2017-04-24d01t05.flac:7e0ced91a5719785cffcd3ca57d0fa3b 41players2017-04-24d01t06.flac:7c73381a9b87c83ee0385179add0fcd7 41players2017-04-24d02t01.flac:698a6e975be088ea6b9d4ed5efe984ae 41players2017-04-24d02t02.flac:743615d2e40ead98f338fffb229ae738 41players2017-04-24d02t03.flac:b125b48092e1d4be91d97dd24783ee25 41players2017-04-24d02t04.flac:de952f92f38745cac6340a701951c425 41players2017-04-24d02t05.flac:89e30baa9ec35b6e932de603da44de72 41players2017-04-24d02t06.flac:e1adcd33516ced534c389ccbc54b7a90 41players2017-04-24d02t07.flac:865baa9616d04223badc44a08e724947 41players2017-04-24d02t08.flac:4a86331213ba13e33ceb0e8881525cf3 41players2017-04-24d03t01.flac:f003ca3747d95675b5004e3dca01ed4d 41players2017-04-24d03t02.flac:34a35becb52bdf4435e5abaecf64fcb9 41players2017-04-24d03t03.flac:cb9d1407d5fc8df7d2ac367dfb6e62ba length expanded size cdr WAVE problems fmt ratio filename 4:31.11 47830316 B --- -- ---xx flac 0.5317 41players2017-04-24d01t01.flac 7:05.52 75092348 B --- -- ---xx flac 0.5637 41players2017-04-24d01t02.flac 7:17.71 77253836 B --- -- ---xx flac 0.4958 41players2017-04-24d01t03.flac 5:15.21 55615436 B --- -- ---xx flac 0.5119 41players2017-04-24d01t04.flac 7:56.60 84107564 B --- -- ---xx flac 0.5101 41players2017-04-24d01t05.flac 7:49.20 82778684 B --- -- ---xx flac 0.5498 41players2017-04-24d01t06.flac 5:51.52 62038748 B --- -- ---xx flac 0.5176 41players2017-04-24d02t01.flac 9:01.67 95590028 B --- -- ---xx flac 0.5099 41players2017-04-24d02t02.flac 9:49.13 103930220 B --- -- ---xx flac 0.5132 41players2017-04-24d02t03.flac 7:36.12 80466668 B --- -- ---xx flac 0.4972 41players2017-04-24d02t04.flac 6:36.31 69927356 B --- -- ---xx flac 0.5362 41players2017-04-24d02t05.flac 5:49.72 61732988 B --- -- ---xx flac 0.5139 41players2017-04-24d02t06.flac 4:16.16 45196076 B --- -- ---xx flac 0.3368 41players2017-04-24d02t07.flac 7:50.11 82933916 B --- -- ---xx flac 0.5102 41players2017-04-24d02t08.flac 7:53.65 83590124 B --- -- ---xx flac 0.4751 41players2017-04-24d03t01.flac 8:36.18 91064780 B --- -- ---xx flac 0.5345 41players2017-04-24d03t02.flac 6:06.15 64597724 B --- -- ---xx flac 0.5455 41players2017-04-24d03t03.flac 119:24.07 1263746812 B 0.5124 (17 files) [...]


Media Files:
http://bt.etree.org/download.php/592630/41players2017-04-24.flac16.torrent




gd April 28 shnids: 28176(1971 garcia/nrps), 114088(1971 [24-48]), 77406(1985), 88099(1989), 92278(1991)

2017-04-28T05:29:44

NOTE: 1980.04.28 not included since only audience recordings circulate (and I'm a sbd snob) ****************************************************************************************** NEW RIDERS OF THE PURPLE SAGE Wednesday, April 28, 1971 Fillmore East - New York, NY SBDMR > Reel > Alesis Masterlink > CDR > EAC > SHN 7 inch BASF Master Reels recorded at 7 1/2 ips. Playback on a Revox A77 reel to reel deck. DISC ONE [41:55] 01 [04:49] Workingman's Blues 02 [04:27] Superman 03 [03:50] Truck Drivin' Man 04 [05:00] I Don't Know You 05 [06:06] Runnin' Back To You 06 [04:51] Down In The Boondocks 07 [07:17] Garden Of Eden 08 [05:35] Glendale Train DISC TWO [44:40] 01 [04:25] Fair Chance To Know 02 [04:33] Sailin' 03 [04:23] Connection 04 [05:14] Henry 05 [07:30] The Weight 06 [07:51] Last Lonely Eagle 07 [04:22] Louisianna Lady 08 [01:05] Fun, Fun, Fun 09 [05:17] Honky Tonk Women John Dawson - rhythm guitar, vocals David Nelson - lead guitar, vocals David Torbert - bass, vocals Jerry Garcia - pedal steel guitar Spencer Dryden - drums ****************************************************************************************** Grateful Dead April 28, 1971 Fillmore East New York, NY Lineage:MR@ 7.5 ips>R @ 7.5 ips.(Wilson Boswell). Transfer info:Akai GX636 > Apogee Mini Me @24/96>Mini DAC(monitoring/mastering)>Lynx One soundcard>Wavelab 5.0 > FLAC 24bit Transfered and mastered by Matt Smith 6/11 Set 1 disc #1 01. Truckin' (14:39) 02. Beat It On Down The Line (3:59) 03. Loser (8:15) 04. El Paso (6:54) 05. The Rub (6:15) 06. Bird Song (9:14) disc #2 01. Crowd/Tuning (1:54) 02. Playing In The Band (6:24) 03. Cumberland Blues (7:07) 04. Ripple (6:12) 05. Me & My Bobby McGee (6:06) 06. Crowd/Tuning (2:57) 07. King Bee (8:15) 08. Bertha (6:14) Set 2 disc #3 01. Crowd/Tuning (2:41) 02. Morning Dew (12:52) 03. Me & My Uncle (3:56) 04. Deal (6:14) 05. Hard To Handle (9:36) 06. Cryptical Envelopment (2:05) > 07. Drums (4:41) > 08. The Other One (13:14) > 09. Wharf Rat (9:27) disc #4 01. Sugar Magnolia (7:16) 02. Crowd/Tuning (6:01) 03. Dark Star* (14:16) > 04. Saint Stephen* (6:20) > 05. Not Fade Away* (3:35) > 06. Goin' Down The Road Feelin' Bad* (6:36) > 07. Not Fade Away* (3:35) *with Tom Constanten Matt's note: Thanks to Bob Menke for the patch sources 'bird song', 'bertha' patched with 2 track Ramrod source.. 'other one > wharf rat' patched with 16 track source.. ****************************************************************************************** Grateful Dead 04/28/1985 Frost Amphitheatre, Stanford Univ. Palo Alto, CA source: Soundboard > DAT > DAT > CD > wav > shn > wav > flac patch source : SBD -> Cassette Master -> Cassette -> CD (Tascam CDRW5000) Thanks to "S" Productions for this source. seeded to abgd edited, and mastered with iZotope Ozone SIRMick September 2006 __________________________________________________________________________________ --Set 1-- 101-d1t01 - Gimme Some Lovin' -> # 102-d1t02 - Mississippi Half-Step Uptown Toodeloo -> 103-d1t03 - New Minglewood Blues 104-d1t04 - tuning 105-d1t05 - Bird Song & 106-d1t06 - tuning $ 107-d1t07 - Tons Of Steel 108-d1t08 - China Cat Sunflower -> % 109-d1t09 - I Know You Rider --Set 2-- 201-d2t01 - tuning 202-d2t02 - Hell in a Bucket -> 203-d2t03 - Crazy Fingers -> 204-d2t04 - Playing in the Band -> 205-d2t05 - China Doll -> 206-d2t06 - Playing in the Band Jam -> 207-d2t07 - Drums -> 208-d3t01 - Space -> 209-d3t02 - Playing in the Band Reprise -> 210-d3t03 - Wharf Rat -> 211-d3t04 - Throwing//Stones -> * 212-d3t05 - Not Fade Away --Encores-- 213-d3t06 - U.S. Blues 214-d3t07 - She Belongs To Me notes: # first 42 seconds patched & there is some static[...]


Media Files:
http://bt.etree.org/download.php/592629/April28history_ET.torrent




Papadosio 2017-04-21 Wanee Music Festival (Mushroom Stage), Live Oak, FL (KM184)

2017-04-28T05:09:44

Papadosio
Wanee Music Festival (Mushroom Stage)
Live Oak, FL
4/21/17

Setlist
01 Track 01
02 Track 02
03 Track 03
04 Track 04
05 Track 05
06 Track 06
07 Track 07

Neumann KM184 > Fostex FR-2LE @ 44.1 kHZ/16 bit
FOH, center, 7.5 ft. High, Wide ORTF mic configuration
All post production with Logic Pro X and xACT
Recorded by D. Fries


Media Files:
http://bt.etree.org/download.php/592628/papadosio2017-04-22wanee.torrent




The Vista String Band - 2017-04-26 - The Vista - Decatur, GA [AKG C451E w/ CK3 - flac1644]

2017-04-27T20:31:21

The Vista Stringband
2017-04-26
The Vista
Decatur, GA

Set 1: AKG C451E w/ CK3 > Audioroot Femto > Tascam DR-680 MKII @ 2496 > SDXC
Set 2: AKG C451E w/ CK3 > Sound Devices MixPre-D > Tascam DR-680 MKII @ 2496 > SDXC
Transfer: SDXC > Samplitude Pro X3 (Build 35) > TLH v2.7.0 (flac8, ffp) > Foobar2000 v1.3.10 (Live Show Tagger)
Location: ROC, 10' high, ORTF
Recorded and processed by Jeff Mitchell (goodhunkofwood@gmail.com)
seeded to etree 2017-04-27

Set 1
s1t01 - Introduction/Tuning
s1t02 - New River Train
s1t03 - New Sally Goodin
s1t04 - Everybody's Talkin'
s1t05 - Born The Be With You
s1t06 - Call Me The Breeze
s1t07 - Sittin' Alone In The Moonlight
s1t08 - Walkin' Boss
s1t09 - Jack-A-Roe
s1t10 - Clinch Mountain Backstep
s1t11 - Long Journey Home
s1t12 - Ophelia

Set 2
s2t01 - Introduction/Tuning
s2t02 - Pony Boy
s2t03 - Hometown Blues
s2t04 - Dublin Blues*
s2t05 - Old Joe Clark**
s2t06 - I Know You Rider**
s2t07 - Nellie Cane**
s2t08 - Encore Break

Encore
s2t09 - Midnight Moonlight***

The Vista Stringband is:
Jeremy Bowman - bass
Michael Smith - mandolin
Jeff Mosier - banjo
Jared Womack - dobro
Nick DiSebastian - guitar

*w/ Kathie Holmes - flute
**w/ Kathie Holmes & Mark Williams - fiddle
***w/ Amelia Mosier

Support your local venues & artists
Buy their stuff & bring your friends


Media Files:
http://bt.etree.org/download.php/592626/vista2017-04-26.akg.c451e.ck3.flac1644.torrent




The Vista String Band - 2017-04-26 - The Vista - Decatur, GA [AKG C451E w/ CK1 - flac1644]

2017-04-27T20:30:28

The Vista Stringband
2017-04-26
The Vista
Decatur, GA

Set 1: AKG C451E w/ CK1 > Sound Devices MixPre-D > Tascam DR-680 MKII @ 2496 > SDXC
Set 2: AKG C451E w/ CK1 > Audioroot Femto > Tascam DR-680 MKII @ 2496 > SDXC
Transfer: SDXC > Samplitude Pro X3 (Build 35) > TLH v2.7.0 (flac8, ffp) > Foobar2000 v1.3.10 (Live Show Tagger)
Location: ROC, 10' high, ORTF
Recorded and processed by Jeff Mitchell (goodhunkofwood@gmail.com)
seeded to etree 2017-04-27

Set 1
s1t01 - Introduction/Tuning
s1t02 - New River Train
s1t03 - New Sally Goodin
s1t04 - Everybody's Talkin'
s1t05 - Born The Be With You
s1t06 - Call Me The Breeze
s1t07 - Sittin' Alone In The Moonlight
s1t08 - Walkin' Boss
s1t09 - Jack-A-Roe
s1t10 - Clinch Mountain Backstep
s1t11 - Long Journey Home
s1t12 - Ophelia

Set 2
s2t01 - Introduction/Tuning
s2t02 - Pony Boy
s2t03 - Hometown Blues
s2t04 - Dublin Blues*
s2t05 - Old Joe Clark**
s2t06 - I Know You Rider**
s2t07 - Nellie Cane**
s2t08 - Encore Break

Encore
s2t09 - Midnight Moonlight***

The Vista Stringband is:
Jeremy Bowman - bass
Michael Smith - mandolin
Jeff Mosier - banjo
Jared Womack - dobro
Nick DiSebastian - guitar

*w/ Kathie Holmes - flute
**w/ Kathie Holmes & Mark Williams - fiddle
***w/ Amelia Mosier

Support your local venues & artists
Buy their stuff & bring your friends


Media Files:
http://bt.etree.org/download.php/592625/vista2017-04-26.akg.c451e.ck1.flac1644.torrent




The Vista String Band - 2017-04-26 - The Vista - Decatur, GA [AKG C451E w/ CK1 & CK3 - flac1644]

2017-04-27T20:29:27

The Vista Stringband
2017-04-26
The Vista
Decatur, GA

Set 1: AKG C451E w/ CK1 > Sound Devices MixPre-D > Tascam DR-680 MKII @ 2496 > SDXC + AKG C451E w/ CK3 > Audioroot Femto > Tascam DR-680 MKII @ 2496 > SDXC
Set 2: AKG C451E w/ CK1 > Audioroot Femto > Tascam DR-680 MKII @ 2496 > SDXC + AKG C451E w/ CK3 > Sound Devices MixPre-D > Tascam DR-680 MKII @ 2496 > SDXC
Transfer: SDXC > Samplitude Pro X3 (Build 35) > TLH v2.7.0 (flac8, ffp) > Foobar2000 v1.3.10 (Live Show Tagger)
Location: ROC, 10' high, ORTF
Recorded and processed by Jeff Mitchell (goodhunkofwood@gmail.com)
seeded to etree 2017-04-27

Set 1
s1t01 - Introduction/Tuning
s1t02 - New River Train
s1t03 - New Sally Goodin
s1t04 - Everybody's Talkin'
s1t05 - Born The Be With You
s1t06 - Call Me The Breeze
s1t07 - Sittin' Alone In The Moonlight
s1t08 - Walkin' Boss
s1t09 - Jack-A-Roe
s1t10 - Clinch Mountain Backstep
s1t11 - Long Journey Home
s1t12 - Ophelia

Set 2
s2t01 - Introduction/Tuning
s2t02 - Pony Boy
s2t03 - Hometown Blues
s2t04 - Dublin Blues*
s2t05 - Old Joe Clark**
s2t06 - I Know You Rider**
s2t07 - Nellie Cane**
s2t08 - Encore Break

Encore
s2t09 - Midnight Moonlight***

The Vista Stringband is:
Jeremy Bowman - bass
Michael Smith - mandolin
Jeff Mosier - banjo
Jared Womack - dobro
Nick DiSebastian - guitar

*w/ Kathie Holmes - flute
**w/ Kathie Holmes & Mark Williams - fiddle
***w/ Amelia Mosier

Support your local venues & artists
Buy their stuff & bring your friends


Media Files:
http://bt.etree.org/download.php/592624/vista2017-04-26.akg.c451e.ck1.ck3.flac1644.torrent




ph1988-05-14.SBD.13767.shnf

2017-04-27T12:48:53

ph88-05-14.txt

Phish
05-14-88
Springfest @ Goddard College - Plainfield, VT

Source: SBD > Page McConnell?s analog master > Cass1 (metal) >
Philips 870 Stand alone CD Recorder > CDR > EAC > Soundforge XP 4.5 >
mkwACT > SHN

Seed and original CDR transfer by Andrew Nemiccolo
Fixes and encoding to SHN by Brendan Komala (yamar3@hotmail.com)

---------------------------------------------------------------------
Disc 1: (62:37)
---------------------------------------------------------------------
1. Fire (04:40)
2. I Didn?t Know* (05:00)
3. Halley?s Comet* (06:31)
4. Light Up or Leave Me Alone (06:23)
5. You Enjoy Myself (17:29)
6. Lizards (cut) (07:10)
7. Lizards (continued) (02:00)
8. Big Black Furry Creature From Mars (03:48)
9. Jesus Left Chicago^ (09:36)

---------------------------------------------------------------------
Disc 2: (31:01)
---------------------------------------------------------------------
1. Fluffhead (16:13)
2. Alumni Blues (05:18)
3. Take the A-Train% (09:30)

*with Nancy on vocals
^with ?Bobby Brown? (Tim Rogers) on harmonica
%with Carl Boyle on saxophone

Notes:
-Tape Flips
d1t06 - decided not to attempt splicing tracks together since music
was lost on the master and could not smooth the connection to my liking.
Decided this was a better route.


Media Files:
http://bt.etree.org/download.php/592623/ph1988-05-14.SBD.13767.shnf.torrent




GRAB 07-03-06

2017-04-27T10:29:44

GRAB- Mike Gordon, Joe Russo, Trey Anastasio, and Marco Beveneto
July 3, 2006
NE Dodge Music Center
Hartford CT


source: Neumann km184> v2> sbm-1 (44.1 kHz)> optical 7pin> JB3
[DIN 90* DFC tapers section, Lawn]

transfer: JB3> firewire> Sound Forge 6.0> cdWave> FLAC Frontend


taped/transfered by Rob Clarke RobClarke.km184 -AT- gmail.com



disc 1:
01. Plazma
02. Drifting
03. Mud City
04. Suskind Hotel
05. Something For Rockets
06. Goodbye Head ->
07. Get Back

disc 2:
01. Shine
02. Hap Nappy
03. Spin ->
04. jam
05. Mr. Completely
06. Uncle Albert/Admiral Halsey ->
07. Stuck in the Middle With You ->
08. Dragonfly


Media Files:
http://bt.etree.org/download.php/592622/trey06-07-03.torrent




Splintered Sunlight Brooklyn Bowl Brooklyn, New York 4/25/2017 (Schoeps CCM4V'S FOB)

2017-04-27T06:47:04

Splintered Sunlight Brooklyn Bowl Brooklyn, New York 4/25/2017 Source: Schoeps CCM4V's>Lunatec V2>Benchmark AD2K> Sound Devices 722 (24/44) FOB/DLFC/KFC/ZFC/AARP 19' From Stage, 7' High DSP: Sound Devices 722>Sound Forge 10.0>CD Wave>flac(16) ID3 Tagged In Foobar 2000 Recorded By: Z-Man Seeded By: Z-Man Disc I 1st Set 01 Cold Rain And Snow 02 Hell In A Bucket 03 Ramble On Rose 04 Me And My Uncle > 05 Mexicali Blues 06 Next Time You See Me 07 Dire Wolf 08 Black-Throated Wind 09 Deal Disc II 2nd Set 01 China-Cat Sunflower > 02 I Know You Rider 03 Spin The Wheel 04 Cumberland Blues 05 Lost Sailor > 06 St. Of Circumstance Disc III 2nd Set Con't 01 St. Stephen > 02 Stella Blue > 03 Turn On Your Lovelight > 04 Wharf Rat > 05 Good Lovin' Encore: 06 Let It Rock splintered2017-04-25d01t01.flac:f96f0fab08ce4347c8209843efcdfcf3 splintered2017-04-25d01t02.flac:feea16aaf0b43bb9335945fcdb04cac2 splintered2017-04-25d01t03.flac:aa802320690837eb09a546869919f57c splintered2017-04-25d01t04.flac:fcffb0cab5329844717a1a17435ab612 splintered2017-04-25d01t05.flac:1f2ab7650fe5b75b8b9b6e63c57ea262 splintered2017-04-25d01t06.flac:2e051d8bce98679b0f072d3d6a4b20f0 splintered2017-04-25d01t07.flac:b1baf9703e645dc408bafca013b7cd4f splintered2017-04-25d01t08.flac:02541ce01dd6bbd8fbe188e41cc06e55 splintered2017-04-25d01t09.flac:f1233581778f714af6e4a9dbc44006f5 splintered2017-04-25d02t01.flac:d3bbe61bc6b9fb89709d5885bbc8bcef splintered2017-04-25d02t02.flac:467f71e1d7d6e08459bb26571c8bc125 splintered2017-04-25d02t03.flac:14ee3c82d998ccf2943f0cd0b8f66b4c splintered2017-04-25d02t04.flac:52081430adb85d6c06ffc04d3fa0d63a splintered2017-04-25d02t05.flac:39e2f2c30381c652303d1c674e0084ca splintered2017-04-25d02t06.flac:ec42720869a86d306d6345ae281f848c splintered2017-04-25d03t01.flac:7568be507aa0fbfe621246b65aa05b54 splintered2017-04-25d03t02.flac:b5923e75ce242e28d399822ec602c5f4 splintered2017-04-25d03t03.flac:0a87a15335b4b42ba9d052e667df8365 splintered2017-04-25d03t04.flac:fac98427ddb6efc7f5571af426c316d8 splintered2017-04-25d03t05.flac:fd24fa0c3a5a4880e26c4808e73639db splintered2017-04-25d03t06.flac:3dc415c15783e42c1cf7f75fa89edb95 length expanded size cdr WAVE problems fmt ratio filename 9:05.45 96243884 B --- -- ---xx flac 0.4752 splintered2017-04-25d01t01.flac 8:13.65 87118124 B --- -- ---xx flac 0.5261 splintered2017-04-25d01t02.flac 8:28.74 89785292 B --- -- ---xx flac 0.4483 splintered2017-04-25d01t03.flac 3:19.39 35195372 B --- -- ---xx flac 0.4950 splintered2017-04-25d01t04.flac 7:24.06 78335756 B --- -- ---xx flac 0.4925 splintered2017-04-25d01t05.flac 7:03.48 74730140 B --- -- ---xx flac 0.4796 splintered2017-04-25d01t06.flac 7:07.63 75471020 B --- -- ---xx flac 0.4569 splintered2017-04-25d01t07.flac 7:09.40 75769724 B --- -- ---xx flac 0.4837 splintered2017-04-25d01t08.flac 9:45.02 103198748 B --- -- ---xx flac 0.4980 splintered2017-04-25d01t09.flac 9:35.54 101557052 B --- -- ---xx flac 0.5469 splintered2017-04-25d02t01.flac 6:03.45 64139084 B --- -- ---xx flac 0.4969 splintered2017-04-25d02t02.flac 8:23.60 88870364 B --- -- ---xx flac 0.5196 splintered2017-04-25d02t03.flac 11:10.32 118263308 B --- -- ---xx flac 0.5122 splintered2017-04-25d02t04.flac 6:03.47 64143788 B --- -- ---[...]


Media Files:
http://bt.etree.org/download.php/592621/splintered2017-04-25.flac16.torrent




gd April 27 shnids: 05070(1969), 114461(1971), 20331(1977), 78504(1985), 26332(1991)

2017-04-27T06:28:18

NOTE: 1984.04.27 not included since only audience recordings circulate (and I'm a sbd snob) ************************************************************************************** Grateful Dead 4-27-69 Labor Temple, Minneapolis, Minnesota SBD>MR>D>CD>SHN Thanks to Jeff Krakowka for this excellent show. EAC/shn encoding/minor Sound Forge edits by J. Cotsman thecore@core.com --Setlist-- 101-d1t01 - Turn on Your Lovelight--> 102-d1t02 - Me & My Uncle--> 103-d1t03 - Sittin' On Top Of The World 104-d2t01 - Dark Star--> 105-d2t02 - St. Stephen--> 106-d2t03 - The Eleven--> 107-d2t04 - Turn on Your Lovelight --Encore-- 108-d2t05 - Morning Dew ******************************************************************************************** Grateful Dead April 27, 1971 Fillmore East New York, NY Recording Info: SBD -> Master Reel -> CD Transfer Info: CD -> Samplitude Professional v11.2 -> Adobe Audition v3.0 -> FLAC (3 Discs Audio / 1 DVD FLAC) All Transfers and Mastering By Charlie Miller charliemiller87@earthlink.net August 29, 2008 (Re-Mastered on July 6, 2011) Notes: -- Set 2 is seamless -- This is a completely different mix than any other circulating copies -- The Beach Boys play on Searchin' through Johnny B. Goode -- Good Vibrations and I Get Around without The Grateful Dead -- Thanks to digitalrbb for transferring the Master Reels -- Thanks to Joe B. Jones for his help with the pitch correction __________________________________________________________________________ --Set 1-- 101-d1t01 - Truckin' 102-d1t02 - Mama Tried 103-d1t03 - Bertha 104-d1t04 - Next Time You See Me 105-d1t05 - Cumberland Blues 106-d1t06 - Me & Bobby McGee 107-d1t07 - Loser 108-d1t08 - Hard to Handle 109-d1t09 - China Cat Sunflower -> 110-d1t10 - I Know You Rider 111-d1t11 - Casey Jones --Set 2-- 201-d2t01 - Sugar Magnolia 202-d2t02 - Deal 203-d2t03 - Me & My Uncle 204-d2t04 - Bird Song 205-d2t05 - Playing in the Band 206-d2t06 - Dire Wolf 207-d2t07 - Searchin' 208-d2t08 - Riot in Cell Block #9 209-d2t09 - Good Vibrations 210-d2t10 - I Get Around 211-d2t11 - Help Me Rhonda 212-d2t12 - Okie From Muskogee 213-d3t01 - Johnny B. Goode 214-d3t02 - Sing Me Back Home 215-d3t03 - Uncle John's Band 216-d3t04 - Turn On Your Lovelight ********************************************************************************************* Grateful Dead 4/27/77 Capitol Theater, Passaic, NJ gd77-04-27.pre-fm.samaritano.20331.sbefixed.flac16 Lineage: Pre-FM Master Reel Soundboard->DAT x ? FM Master Reel Soundboard->VHS->DAT x ? (Patch for beginning of Promised Land up to "Georgia Sate.") Transfer: DAT->ZA2->Soundforge->.wav->mkw->SHN DAT seed provided by Dan Lynch DAT patch provided by Joe Samaritano Transfer and SHN by Joe Samaritano 11/2/2003 Notes: Between songs there is some sort of "matrix switch" to audience, but when next song starts it switches back to soundboard. Most circulating copies have this "matrix switch" cut out and replaced with annoying fades in and out. ___________________________________________________________________________ --Set 1-- 101-d1t01 - Band intros -> The Promised Land 102-d1t02 - Mississippi Half-Step Uptown Toodeloo 103-d1t03 - Looks Like Rain 104-d1t04 - Sugaree 105-d1t05 - El Paso 106-d1t06 - Row Jimmy 107-d1t07 - New Minglewood blues 108-d1t08 - Loser 109-d2t01 - The Music Never Stopped --Set 2-- 201-d2t02 - Estimated Prophet 202-d2t03 - Scarlet Begonias -> 203-d2t04 - Fire on the Mountain -> 204-d2t05 - Good Lovin' 205-d3[...]


Media Files:
http://bt.etree.org/download.php/592620/April27history_ET.torrent




gd1988-03-12.bammies.fm.138189.flac1644

2017-04-27T01:03:41

GRATEFUL DEAD & FRIENDS
11th Bay Area Music Awards - The Bammies
Civic Auditorium
San Francisco CA
03-12-1988

01 Best Bassist Award - Phil Lesh
02 Best Album Award - In the Dark
03 Best Drummer Award - Mickey Hart & Bill Kreutzmann
04 Best Guitarist Award - Jerry Garcia
05 Musician of the Year Award - Jerry Garcia
06 Mickey Hart & Friends Jam Session
07 Good Morning Little Schoolgirl (1)
08 Turn On Your Lovelight (1)
09 announcers & tuning
10 Long Tall Sally (2)

(1) Grateful Dead, Huey Lewis & the News
(2) Grateful Dead, Huey Lewis & the News, Merl Saunders, John Fogerty

Source: KFOG-FM > Cassette (compilation tape of GD-related highlights,
marked 3rd Gen) kindly provided from the collection of DL.

Transfer: TDK SA-90 > Nakamichi CR-5A > Edirol FA-66 > Wavelab 2448 >
R8Brain > CD-Wave > TLH > FLAC 1644 tagged. Transfer by Andrew F. 04/2017

length expanded size cdr WAVE problems fmt ratio filename
1:53.25 19992044 B --- -- ---xx flac 0.6187 gd1988-03-12t01.flac
3:29.52 36989948 B --- -- ---xx flac 0.6265 gd1988-03-12t02.flac
2:00.00 21168044 B --- -- ---xx flac 0.6171 gd1988-03-12t03.flac
2:12.72 23454188 B --- -- ---xx flac 0.6284 gd1988-03-12t04.flac
3:43.00 39337244 B --- -- ---xx flac 0.6205 gd1988-03-12t05.flac
15:41.13 166023020 B --- -- ---xx flac 0.7013 gd1988-03-12t06.flac
10:45.49 113893292 B --- -- ---xx flac 0.7231 gd1988-03-12t07.flac
8:47.61 93106316 B --- -- ---xx flac 0.7201 gd1988-03-12t08.flac
3:27.37 36601868 B --- -- ---xx flac 0.6080 gd1988-03-12t09.flac
4:36.40 48780524 B --- -- ---xx flac 0.7184 gd1988-03-12t10.flac
56:37.49 599346488 B 0.6856 (10 files)

No errors occured.


Media Files:
http://bt.etree.org/download.php/592619/gd1988-03-12.bammies.fm.138189.flac1644.torrent




Matisyahu 2017-04-21 Wanee Music Festival (Peach Stage), Live Oak, FL (DPA 4021)

2017-04-27T00:38:40

Matisyahu
Wanee Music Festival (Peach Stage)
Live Oak, FL
4/21/17

Setlist
01 Wanderer
02 Black Heart
03 Aish Tamid
04 Shade from the Sun
05 Exaltation (w/ Bob Marley rap)
06 Aish Tamid (w/ Ancient Lullaby rap)
07 King Without A Crown
08 Lord Raise Me Up
09 Close My Eyes
10 Love Born

Matisyahu - vox, beat box
Aaron Dugan - guitar
Jason Fraticelli - bass
Rob Marscher - keyboards
Joe Tomino - drums

Recorded with DPA 4021’s > SX-M2 > SD 744T @ 44.1 kHZ/16 bit
45 ft. f/ stage, center, 9 ft. High, ORTF mic configuration
All post production with Logic Pro X and xACT.
Recorded by D. Fries


Media Files:
http://bt.etree.org/download.php/592618/matisyahu2017-04-21wanee.torrent




tab2017-04-20.mk41.flac

2017-04-27T00:24:44

Trey Anastasio Band
4-20-2017
The Fillmore
Charlotte, NC

Schoeps mk41(POS)>Nbox>744t>wav(24b)>flac
Recorded by Camden Bouchard

Set 1:
1. Gotta Jiboo
2. Sometime After Sunset
3. Magilla
4. Curlew’s Call
5. Cayman Review
6. Rise Up (new Trey song currently untitled)
7. Feel it Still
8. Night Speaks to a Woman
9. 49 Bye Byes
10. Burlap Sack and Pumps
11. Valentine
12. Sand

Set 2:
1. Corona
2. Mozambique
3. Alive Again
4. Money Love and Change
5. 1977
6. Alaska
7. Shine
8. Tide Turns
9. Clint Eastwood
10. Last Tube
11. The Parting Glass
Encore:
12. Show of Life
13. Sweet Dreams Melinda
14. Everything’s Right
15. Push on til the Day


Media Files:
http://bt.etree.org/download.php/592617/tab2017-04-20.mk41.flac.torrent




tab2017-04-20.mk4v

2017-04-27T00:15:12

Trey Anastasio Band
4-20-2017
The Fillmore
Charlotte, NC

Schoeps mk4V>KCY>CMC6>V2>744t>wav(24b)>flac
Recorded and transferred by John Wilson (jmwils1_at_gmail.com)

Set 1:
1. Gotta Jiboo
2. Sometime After Sunset
3. Magilla
4. Curlew’s Call
5. Cayman Review
6. Rise Up (new Trey song currently untitled)
7. Feel it Still
8. Night Speaks to a Woman
9. 49 Bye Byes
10. Burlap Sack and Pumps
11. Valentine
12. Sand

Set 2:
1. Corona
2. Mozambique
3. Alive Again
4. Money Love and Change
5. 1977
6. Alaska
7. Shine
8. Tide Turns
9. Clint Eastwood
10. Last Tube
11. The Parting Glass
Encore:
12. Show of Life
13. Sweet Dreams Melinda
14. Everything’s Right
15. Push on til the Day


Media Files:
http://bt.etree.org/download.php/592616/tab2017-04-20.mk4v.flac.torrent




Bobby Lee Rodgers Trio W/ Roosevelt Collier 2017-04-20 Wanee Music Festival Live Oak, FL Telefunken M-60 > Tascam DR-680 MKI (16/48)

2017-04-26T20:01:07

Bobby Lee Rodgers Trio W/ Roosevelt Collier
2017-04-20
Wanee Music Festival
Live Oak, FL

Telefunken M-60 > Tascam DR-680 MKI (16/48) > SDHC > MacBook Pro > Adobe Audition > Flac > xACT
Recorded & Mastered By Scott Medeiros

Set One:

01 Victor The Snakeman (Band Intros)
02 Get To Know You Better
03 Saved By The Same Thing
04 Unknown Instrumental
05 Outer Space
06 Ike Stubblefield

Roosevelt Collier
Brian Tate / Bass
Tom Damon / Drums
Bobby Lee Rodgers / Guitar/ Vox


Check me out on Youtube and please Subscribe
https://www.youtube.com/channel/UCbLDkrWkBjNDP6-qzikPN5g

Please check out my recording page on Facebook and give it a like !
https://www.facebook.com/pages/MuzikWize-Live-Recordings/681543778579073?ref=hl

Here's a link to everything you may have missed
https://archive.org/details/@scottmedeiros


Media Files:
http://bt.etree.org/download.php/592614/Bobby Lee Rodgers Trio Roosevelt Collier 42 Mushroom Stage.torrent




Seth Rivers Solo Acoustic Sweetwater 420 Festival Aftershow Smith's Olde Bar Atlanta, Georgia 4/22/2017 (Schoeps CCM4V'S FOB)

2017-04-26T18:14:55

Seth Rivers Solo Acoustic
Smith's Olde Bar
Atlanta, Georgia
4/22/2017

Source: Schoeps CCM4V's>Lunatec V2>Benchmark AD2K>
Sound Devices 722 (24/44)
FOB/DFC/KFC/ZFC/AARP 19' From Stage, 7' High
DSP: Sound Devices 722>Sound Forge 10.0>CD Wave>flac(16)
ID3 Tagged In Foobar 2000
Recorded By: Z-Man
Seeded By: Z-Man

Disc I

01 ?
02 ?
03 ?

* Show Notes: Left Sweetwater 420 after the last note of Widespread Panic. Got through the crowd,
drove over to Smith;s, went in and set up, then hit record 36 minutes after Panic. Unfortunately,
Seth had already starte before Dany and I got there. So, this is all I haveto share. Better than
nothing.

seth2017-04-22d01t01.flac:bff8329dbfafa42144ce0bfde6895069
seth2017-04-22d01t02.flac:7cad448c069344d7c4e3c9fcbe2bd466
seth2017-04-22d01t03.flac:5cf4336594d0b75d44c13343510e311b

length expanded size cdr WAVE problems fmt ratio filename
5:06.66 54133676 B --- -- ---xx flac 0.3856 seth2017-04-22d01t01.flac
6:02.50 63974444 B --- -- ---xx flac 0.3875 seth2017-04-22d01t02.flac
5:16.01 55744796 B --- -- ---xx flac 0.3916 seth2017-04-22d01t03.flac
16:25.42 173852916 B 0.3882 (3 files)












Media Files:
http://bt.etree.org/download.php/592613/seth2017-04-22.flac16.torrent




420 Super Jam - Emporium Arcade Bar - Chicago, IL 2017-4-20 AKG 481

2017-04-26T18:13:10

420 Superjam
2017-04-20 (Thu)
Emporium Arcade Bar
Chicago, IL

Recorded and seeded by Jeff Frank jsfrank@sbcglobal.net
AKG 481 > V3 > Marantz PMD661 (16/44.1)

set 1 Friend of the Devil
t01 How Sweet It Is
t02 Dark Star
t03 Scarlet Begonias
t04 Row Jimmy
t05 Estimated Prophet
t06 Crazy Fingers
t07 Unbroken Chain
t08 King Soloman's Marbles
t09 Morning Dew

set2 420 Superjam
t01 tuning intro
t02 ? James Brown song
t03 ?
t04 ?
t05 Ophelia
t06 ?
t07 ?
t08 ?
t09 Thank You For Letting Me Be Myself
t10 Not Fade Away


Media Files:
http://bt.etree.org/download.php/592612/420Superjam2017-04-20akg481.torrent