Subscribe: bt.etree.org
http://bt.etree.org/rss/bt_etree_org.rdf
Added By: Feedage Forager Feedage Grade B rated
Language: English
Tags:
banter  bass  bit  flac flac  flac moe  flac  guitar  hall  moe flac  moe  recorded  schoeps  set  sony pcm  sony  sound 
Rate this Feed
Rate this feedRate this feedRate this feedRate this feedRate this feed
Rate this feed 1 starRate this feed 2 starRate this feed 3 starRate this feed 4 starRate this feed 5 star

Comments (0)

Feed Details and Statistics Feed Statistics
Preview: bt.etree.org

bt.etree.org



etree.org BitTorrent Tracker



Published: 2017-02-20T19:15:01

Last Build Date: 2017-02-20T19:15:01

Copyright: Copyright 2013, etree.org
 



Twiddle 2017-01-21 ~~ Jam Cruise Pool Deck ~~ Schoeps mk22

2017-02-20T18:16:26

Twiddle
Jam Cruise
Pool Deck on the Norwegian Pearl
2017-01-21
Source: Schoeps mk22/cmc6/kc5 -> Sound Devices 722
Transfer: Wavelab 7.0 (fades, dither & resample) cdwav (tracking) Traders Little helper (fingerprint and torrent creation)
Recorded and transferred by Steve Bazley


Media Files:
http://bt.etree.org/download.php/591391/Twiddle 2017-01-21 ~~ Jam Cruise Pool Deck ~~ Schoeps mk22.torrent




Twiddle 2017-01-22 ~~ Jam Cruise Stardust Theater ~~ Schoeps mk4

2017-02-20T18:03:15

Twiddle
Jam Cruise
Stardust Theater on the Norwegian Pearl
2017-01-22
Source: Schoeps mk4/cmc6/kc5 -> Sound Devices 788T
Transfer: Wavelab 7.0 (fades, dither & resample) cdwav (tracking) Traders Little helper (fingerprint and torrent creation)
Recorded and transferred by Steve Bazley


Media Files:
http://bt.etree.org/download.php/591390/Twiddle 2017-01-22 ~~ Jam Cruise Stardust Theater ~~ Schoeps mk4.torrent




Lettuce 2/19/17 Cap Theater Port Chester,NY MG21 +AKG CK63 Matrix

2017-02-20T16:30:08

Lettuce
19 February 2017
Capitol Theatre
Port Chester, NY

*************************************************************************
Taper: Keith Antaya
Source 1: MG21(Hypers)>nBob Actives>nBox Platinum>R44(24/48)
Source 2: AKG CK63(Hypers)>nBob Actives>R44 ACM Mod(24/48)
Location: FOB right corner of soundboard
Conversion: SDHC Card>Adobe Audition 3.0>CDWave 1.71
*************************************************************************


Set I
01.Intro
02.Blaze
03.The Dump
04.The Bowler
05.The Force->
06.Phyllis
07.Last Suppit
08.Does Your Mama Know
09.Breakout
10.Lettsanity

Set II

01.Dedication to Clyde Stubblefield
02.Mt Crushmore->
03.116th
04.Chief
05.Purple Cabbage->
06.Sam Huff's Flying Raging Machine
07.(Slippin'Into Darkness)->Do It('Til You're Satisfied)
08.Ready To Live
09.Get Greazy
10.Encore Crowd
_________________________
11.Do It Like You Do#


Notes:
# Deshawn "D Vibes" Alexander-Keys

Erick "Jesus" Coomes-Bass
Adam Deitch-Drums
Adam "Shmeeans" Smirnoff-Guitar
Neil Evans-Keys
Ryan Zoidis-Sax
Eric "Benny" Bloom-Trumpet
Eric Krasno-Guitar
Nigel Hall-Keys/Vocals



Media Files:
http://bt.etree.org/download.php/591389/lettuce2017.02.19.matrix.flac16.torrent




moe. - 2017-02-19 - Sweetwater 20th Anniversary Party - Sweetwater Brewery - Atlanta, GA [flac1644 AKG C451E w/ CK3]

2017-02-20T15:25:29

moe.
2017-02-19
Sweetwater Brewery 20th Anniversary Party
Sweetwater Brewery
Atlanta, GA

Source: AKG C451E w/ CK3 > Sound Devices Mixpre > Tascam DR-680 MKII @ 2496 > SDXC
Transfer: SDXC > Samplitude Pro X3 Build 35 (iZotope Ozone 5 Dither MBIT+/Ultra/16/High) > TLH v2.7.0 (align on sector boundaries, flac8, ffp) > Foobar2000 v1.3.10 (Live Show Tagger)
Location: FOB, DFC, ORTF on stand 9' set 1, 12' set 2
Recorded and processed by Jeff Mitchell (goodhunkofwood@gmail.com)
seeded to etree 2017-02-20

Set 1
s1t01 - Introduction
s1t02 - Happy Hour Hero
s1t03 - Stranger Than Fiction
s1t04 - The Road >
s1t05 - St. Augustine
s1t06 - Puebla
s1t07 - Shoot First >
s1t08 - 32 Things

Set 2
s2t01 - Introduction
s2t02 - Plane Crash
s2t03 - Annihilation Blues
s2t04 - Not Coming Down >
s2t05 - Wormwood >
s2t06 - Opium
s2t07 - Spine Of A Dog >
s2t08 - Rebubula
s2t09 - Encore Break

Encore
s2t10 - Downward Facing Dog

Support your local venues & artists
Buy their stuff & bring your friends


Media Files:
http://bt.etree.org/download.php/591388/moe2017-02-19.akg.c451e.ck3.flac1644.torrent




Jerry Garcia Band 1989-09-10 Great Woods Mansfield, MA Sennheiser 421 > Sony D6 > MC >*NEW SOURCE*

2017-02-20T13:44:59

Jerry Garcia Band
1989-09-10
Great Woods
Mansfield, MA

Sennheiser 421 > Sony D6 > MC > Sony TC-WE 405 > Line Out > MacBook Pro > Adobe Audition > Flac > xACT 2.38

Recorded By John Rivers (Royal Flush Recordings)
Mastered By Scott Medeiros

SET 1:

01 Cats Under The Stars
02 They Love Each Other
03 Knockin' On Heaven's Door
04 Run For The Roses
05 Mississippi Moon %
06 I Hope It Won't Be This Way, Always —> *^
07 Deal


SET 2:
Second That Emotion (Missing)
08 And It Stoned Me
Simple Twist Of Fate (Missing)
09 Waiting For A Miracle ^
10 Evangeline
11 That Lucky Old Sun (Cut)
Tangled Up In Blue (Missing)

% Tape flip / Splice
^ Clarence Clemons / Sax
* Last time played

JGB Is:

Jerry Garcia / Guitar / Vox
John Kahn / Bass
Melvin Seals / Keys
David Kemper / Drums
Jaclyn LaBranch / Vox
Gloria Jones / Vox



Check me out on Youtube and please Subscribe
https://www.youtube.com/channel/UCbLDkrWkBjNDP6-qzikPN5g

Please check out my recording page on Facebook and give it a like !
https://www.facebook.com/pages/MuzikWize-Live-Recordings/681543778579073?ref=hl

Here's a link to everything you may have missed
https://archive.org/details/@scottmedeiros


Media Files:
http://bt.etree.org/download.php/591387/JGB.torrent




moe. 2017-02-19 Sweetwater Brewery Atlanta GA mk4>femto *16 Bit*

2017-02-20T03:55:31

moe.
2017-02-19
Sweetwater Brewery 20th Birthday Bash
Atlanta, GA

source: Schoeps MK4>NBob Actives>Femto Audioroot>SD 744 @ 24/48
fob dfc 35 ft from stage @ 9 ft. DINa
transfer: sdhc>audacity dither>cd wave splits>tlh flac 8

t&s by c. cage

A Home Team Dirty South Recording

Set 1

01 Tuning
02 Happy Hour Hero
03 Stranger Than Fiction
04 Al Banter
05 The Road
06 St. Augustine
07 Puebla >
08 Shoot First >
09 32 Things

Set 2

01 Sweetwater Brewery 20th Birthday Toast * (.)(.)
02 Plane Crash
03 Annihilation Blues
04 Not Coming Down >
05 Wormwood >
06 Opium
07 Tuning/Banter
08 Spine Of A Dog >
09 Rebubula
10 Crowd

e:
11 Al-nouncements
12 Downward Facing Dog

* Sweetwater Founders raise a toast at 4:20 PM

(.)(.) w/ special guest stripper "Blondie" from Clermont Lounge!


Media Files:
http://bt.etree.org/download.php/591386/moe2017-02-19mk4.torrent




moe. Sweetwater 20th Anniversary Party Sweetwater Brewery Atlanta, Georgia 2/19/2017 (Schoeps CCM4V'S FOB)

2017-02-20T03:46:02

moe. Sweetwater Brewery 20th Anniversary Party Sweetwater Brewery Atlanta, Georgia 2/19/2017 Source: Schoeps CCM4V's>Lunatec V2>Benchmark AD2K> Sound Devices 722 (24/44) FOB/DFC/KFC/ZFC/AARP 30' From Stage, 8' High DSP: Sound Devices 722>Sound Forge 10.0>CD Wave>flac(16) ID3 Tagged In Foobar 2000 Recorded By: Z-Man Seeded By: Z-Man Disc I 1st Set 01 Greeting 02 Happy Hour Hero 03 Stranger Than Fiction 04 The Road > 05 St. Augustine 06 Puebla 07 Shoot First > 08 32 Things Disc II 2nd Set 01 *Freddie Of Sweetwater Banter And 420 Toast 02 Plane Crash 03 Anialator Blues 04 Not Coming Down > 05 Wormwood > 06 Opium Disc III 2nd Set Con't 01 Spine Of A Dog > 02 Rebubula Encore: 03 Alnouncements 04 Downward Facing Dog * With "Blondie" moe2017-02-19d01t01.flac:ab15f5d942991d2a31a707a6cd668ea8 moe2017-02-19d01t02.flac:19605b78c40cda3fd5a4ad99aab84fc3 moe2017-02-19d01t03.flac:c88d8524d616d45ce95bcf78b9bdd72e moe2017-02-19d01t04.flac:1ee8378b39fe533b150af8fbff2cb71c moe2017-02-19d01t05.flac:679daa86307aad5b49f1dc3c794dfb86 moe2017-02-19d01t06.flac:9c8056df2e688cce0bd05763b426d89f moe2017-02-19d01t07.flac:b66217add09313b29c756c2eaa3b17b3 moe2017-02-19d01t08.flac:44acfaa9865602b653939164f5bdbe2b moe2017-02-19d02t01.flac:0c3f7ed0fb55b75167d702d92c570f5b moe2017-02-19d02t02.flac:02bbfe6253f183a74707034ad617b0bf moe2017-02-19d02t03.flac:a63c2280d3c3e60a5856cedeaf5b6ce5 moe2017-02-19d02t04.flac:24917861a595cd212a3cf73a2c5566ed moe2017-02-19d02t05.flac:46c419b871625cc0ca0b140f5bebf283 moe2017-02-19d02t06.flac:7f4a8534572167087ffe7d3d55ece108 moe2017-02-19d03t01.flac:e0e7c42b8808106672cfb7438d642099 moe2017-02-19d03t02.flac:8bdb5742abb8fc93292170ac9e334d99 moe2017-02-19d03t03.flac:8712d956cc43389263a4481c804787dd moe2017-02-19d03t04.flac:11dea20d904acd26fbf77dc3fe28cf84 length expanded size cdr WAVE problems fmt ratio filename 0:57.67 10212428 B --- -- ---xx flac 0.2667 moe2017-02-19d01t01.flac 7:43.44 81776732 B --- -- ---xx flac 0.5005 moe2017-02-19d01t02.flac 6:05.03 64393100 B --- -- ---xx flac 0.4728 moe2017-02-19d01t03.flac 10:05.48 106834940 B --- -- ---xx flac 0.5215 moe2017-02-19d01t04.flac 9:47.24 103603292 B --- -- ---xx flac 0.4892 moe2017-02-19d01t05.flac 12:21.29 130780652 B --- -- ---xx flac 0.4902 moe2017-02-19d01t06.flac 10:09.33 107505260 B --- -- ---xx flac 0.4891 moe2017-02-19d01t07.flac 13:28.68 142691180 B --- -- ---xx flac 0.5181 moe2017-02-19d01t08.flac 6:04.41 64306076 B --- -- ---xx flac 0.3541 moe2017-02-19d02t01.flac 14:24.06 152423756 B --- -- ---xx flac 0.5033 moe2017-02-19d02t02.flac 4:36.33 48764060 B --- -- ---xx flac 0.5022 moe2017-02-19d02t03.flac 4:25.71 46913036 B --- -- ---xx flac 0.5465 moe2017-02-19d02t04.flac 8:00.10 84695564 B --- -- ---xx flac 0.4878 moe2017-02-19d02t05.flac 11:35.03 122605100 B --- -- ---xx flac 0.4669 moe2017-02-19d02t06.flac 14:27.00 152938844 B --- -- ---xx flac 0.4823 moe2017-02-19d03t01.flac 16:15.18 172032380 B --- -- ---xx flac 0.5166 moe2017-02-19d03t02.flac 3:08.67 33320828 B --- -- ---xx flac 0.3484 moe2017-02-19d03t03.flac 12:08.54 128546252 B --- -- ---xx flac 0.4958 moe2017-02-19d03t04.flac 165:45.19 1754343480 B 0.4886 (18 files) [...]


Media Files:
http://bt.etree.org/download.php/591385/moe2017-02-19.flac16.torrent




moe. 2017-02-19 Sweetwater Brewery Atlanta GA mg210 *16 Bit* FIXED

2017-02-20T03:24:45

moe.
2017-02-19
Sweetwater Brewery 20th Birthday Bash
Atlanta, GA

source: Microtech Gefell 210>SD 744 @ 24/48
fob dfc 35 ft from stage @ 9 ft. DIN
transfer: sdhc>audacity dither>cd wave splits>tlh flac 8

t&s by c. cage

A Home Team Dirty South Recording

Set 1
01 Tuning
02 Happy Hour Hero
03 Stranger Than Fiction
04 Al Banter
05 The Road
06 St. Augustine
07 Puebla >
08 Shoot First >
09 32 Things

Set 2

01 Sweetwater Brewery 20th Birthday Toast * (.)(.)
02 Plane Crash
03 Annihilation Blues
04 Not Coming Down >
05 Wormwood >
06 Opium
07 Tuning/Banter
08 Spine Of A Dog >
09 Rebubula
10 Crowd

e:
11 Al-nouncements
12 Downward Facing Dog

* Sweetwater Founders raise a toast at 4:20 PM

(.)(.) w/ special guest stripper "Blondie" from Clermont Lounge!


Media Files:
http://bt.etree.org/download.php/591384/moe2017-02-19mg210.torrent




Drive-By Truckers, Turner Hall Ballroom, Milwaukee, WI, 2017-02-01, flac24

2017-02-20T03:15:57

Drive-By Truckers
Turner Hall Ballroom
Milwaukee, WI
February 1, 2017

Taper: bersey (kjb530@gmail.com)
Location: Behind soundboard cage, dead center, mics about 11' high
Source: CA-11 cardioids > CA-9100 > Sony PCM-M10 @ 24 bit/48kHz
Conversion: Sony PCM-M10 > PC > Sony Sound Forge Audio Studio 9.0 (fades, normalize)
> CD Wave Editor (tracking) > Trader's Little Helper (encode to flac,
level 6) > foobar 2000 (tagging)

********************************************************************************************
*************************DO NOT DISTRIBUTE IN LOSSY FORMATS LIKE MP3************************
***********************RECORDING IS NOT FOR SALE OR ANY COMMERCIAL USE**********************
********************************************************************************************

01. Intro 01:14.00
02. Filthy and Fried 03:32.00
03. Aftermath 05:16.00
04. Gravity's Gone 03:31.00
05. Darkened Flags on the Cusp of Dawn 02:56.00
06. Surrender Under Protest 03:48.00
07. Sink Hole 05:42.00
08. Uncle Frank 05:27.00
09. Ever South 08:59.00
10. Made Up English Oceans 04:38.00
11. The Righteous Path 05:09.00
12. Kinky Hypocrite 04:04.00
13. Lookout Mountain 04:44.00
14. When the Pin Hits the Shell 04:33.00
15. A World of Hurt 07:50.00
16. Zip City 05:29.00
17. Dead, Drunk and Naked 05:14.00
18. Guitar Man Upstairs 04:35.00
19. What It Means 07:03.00
20. Once They Banned Imagine 05:14.00
21. Ronnie and Neil 05:04.00
22. Ramon Casiano 03:59.00
23. Hell No, I Ain't Happy > 03:06.00
24. Sign O' the Times * > 03:53.00
25. Hell No, I Ain't Happy 05:20.00

Total: 2:00:20.00


Notes:
Opening act - Kyle Craft
* Prince cover


Drive-By Truckers:
Patterson Hood - electric guitar, acoustic guitar, vocals
Mike Cooley - electric guitar, acoustic guitar, vocals
Matt Patton - bass, backing vocal
Jay Gonzales - keys, electric guitar, backing vocals
Brad Morgan - drums


Thanks to Drive-By Truckers and Turner Hall Ballroom for letting me record the show!

Compiled by Kurt Berwanger on February 19, 2017




Media Files:
http://bt.etree.org/download.php/591383/dbt2017-02-01.flac24.torrent




Drive-By Truckers, Turner Hall Ballroom, Milwaukee, WI, 2017-02-01, flac16

2017-02-20T03:14:50

Drive-By Truckers
Turner Hall Ballroom
Milwaukee, WI
February 1, 2017

Taper: bersey (kjb530@gmail.com)
Location: Behind soundboard cage, dead center, mics about 11' high
Source: CA-11 cardioids > CA-9100 > Sony PCM-M10 @ 24 bit/48kHz
Conversion: Sony PCM-M10 > PC > Sony Sound Forge Audio Studio 9.0 (fades, normalize,
resample to 44.1kHz, dither to 16 bit) > CD Wave Editor (tracking) >
Trader's Little Helper (encode to flac, level 6) > foobar 2000 (tagging)

********************************************************************************************
*************************DO NOT DISTRIBUTE IN LOSSY FORMATS LIKE MP3************************
***********************RECORDING IS NOT FOR SALE OR ANY COMMERCIAL USE**********************
********************************************************************************************

01. Intro 01:14.00
02. Filthy and Fried 03:32.00
03. Aftermath 05:16.00
04. Gravity's Gone 03:31.00
05. Darkened Flags on the Cusp of Dawn 02:56.00
06. Surrender Under Protest 03:48.00
07. Sink Hole 05:42.00
08. Uncle Frank 05:27.00
09. Ever South 08:59.00
10. Made Up English Oceans 04:38.00
11. The Righteous Path 05:09.00
12. Kinky Hypocrite 04:04.00
13. Lookout Mountain 04:44.00
14. When the Pin Hits the Shell 04:33.00
15. A World of Hurt 07:50.00
16. Zip City 05:29.00
17. Dead, Drunk and Naked 05:14.00
18. Guitar Man Upstairs 04:35.00
19. What It Means 07:03.00
20. Once They Banned Imagine 05:14.00
21. Ronnie and Neil 05:04.00
22. Ramon Casiano 03:59.00
23. Hell No, I Ain't Happy > 03:06.00
24. Sign O' the Times * > 03:53.00
25. Hell No, I Ain't Happy 05:20.00

Total: 2:00:20.00


Notes:
Opening act - Kyle Craft
* Prince cover


Drive-By Truckers:
Patterson Hood - electric guitar, acoustic guitar, vocals
Mike Cooley - electric guitar, acoustic guitar, vocals
Matt Patton - bass, backing vocal
Jay Gonzales - keys, electric guitar, backing vocals
Brad Morgan - drums


Thanks to Drive-By Truckers and Turner Hall Ballroom for letting me record the show!

Compiled by Kurt Berwanger on February 19, 2017




Media Files:
http://bt.etree.org/download.php/591382/dbt2017-02-01.flac16.torrent




Kyle Craft, Turner Hall Ballroom, Milwaukee, WI, 2017-02-01, flac24

2017-02-20T03:13:14

Kyle Craft
Turner Hall Ballroom
Milwaukee, WI
February 1, 2017

Taper: bersey (kjb530@gmail.com)
Location: Behind soundboard cage, dead center, mics about 11' high
Source: CA-11 cardioids > CA-9100 > Sony PCM-M10 @ 24 bit/48kHz
Conversion: Sony PCM-M10 > PC > Sony Sound Forge Audio Studio 9.0 (fades, normalize)
> CD Wave Editor (tracking) > Trader's Little Helper (encode to flac,
level 6) > foobar 2000 (tagging)

********************************************************************************************
*************************DO NOT DISTRIBUTE IN LOSSY FORMATS LIKE MP3************************
***********************RECORDING IS NOT FOR SALE OR ANY COMMERCIAL USE**********************
********************************************************************************************

01. Black Mary 04:53.00
02. Future Midcity Massacre 03:19.00
03. Dolls of Highland 01:24.00
04. Jane Beat the Reaper 04:20.00
05. California Kind of Blue * 05:05.00
06. Heartbreak Junkie 04:48.00
07. The Rager 03:26.00
08. Lady of the Ark 05:22.00
09. Pentecost 04:01.00
10. Eye of the Hurricane 05:04.00
11. Before the Wall * 04:18.00

Total: 46:00.00


Notes:
Opening for Drive-By Truckers
* Kyle Craft solo


Kyle Craft - acoustic guitar, piano, vocals
Jeremy Kale - electric guitar
Mayhaw Hoons - bass
Dan Talmadge - piano
Ben Steinmetz - organ
Haven Multz - drums


Compiled by Kurt Berwanger on February 19, 2017




Media Files:
http://bt.etree.org/download.php/591381/kylecraft2017-02-01.flac24.torrent




Kyle Craft, Turner Hall Ballroom, Milwaukee, WI, 2017-02-01, flac16

2017-02-20T03:11:57

Kyle Craft
Turner Hall Ballroom
Milwaukee, WI
February 1, 2017

Taper: bersey (kjb530@gmail.com)
Location: Behind soundboard cage, dead center, mics about 11' high
Source: CA-11 cardioids > CA-9100 > Sony PCM-M10 @ 24 bit/48kHz
Conversion: Sony PCM-M10 > PC > Sony Sound Forge Audio Studio 9.0 (fades, normalize,
resample to 44.1kHz, dither to 16 bit) > CD Wave Editor (tracking) >
Trader's Little Helper (encode to flac, level 6) > foobar 2000 (tagging)

********************************************************************************************
*************************DO NOT DISTRIBUTE IN LOSSY FORMATS LIKE MP3************************
***********************RECORDING IS NOT FOR SALE OR ANY COMMERCIAL USE**********************
********************************************************************************************

01. Black Mary 04:53.00
02. Future Midcity Massacre 03:19.00
03. Dolls of Highland 01:24.00
04. Jane Beat the Reaper 04:20.00
05. California Kind of Blue * 05:05.00
06. Heartbreak Junkie 04:48.00
07. The Rager 03:26.00
08. Lady of the Ark 05:22.00
09. Pentecost 04:01.00
10. Eye of the Hurricane 05:04.00
11. Before the Wall * 04:18.00

Total: 46:00.00


Notes:
Opening for Drive-By Truckers
* Kyle Craft solo


Kyle Craft - acoustic guitar, piano, vocals
Jeremy Kale - electric guitar
Mayhaw Hoons - bass
Dan Talmadge - piano
Ben Steinmetz - organ
Haven Multz - drums


Compiled by Kurt Berwanger on February 19, 2017




Media Files:
http://bt.etree.org/download.php/591380/kylecraft2017-02-01.flac16.torrent




Dark Star Orchestra, 2017-02-10, Roseland Theater, Portland, OR (** Schoeps MK4 ** 24 bit)

2017-02-20T02:40:16

Dark Star Orchestra
The Roseland Theater
Portland, OR
February 10, 2017

Source: Schoeps MK4 > KC5 > CMC6 > DR-680 (24 Bit,48kHz)
Format: 24-bit, 48 kHz
Recorded and transferred by Rick Odeen

This setlist is a re-creation of the Grateful Dead, August 30, 1980, Capital Centre, Landover, MD

Set 1
-----
01. Alabama Getaway
02. Promised Land
03. They Love Each Other
04. Mama Tried
05. Mexicali Blues
06. Althea
07. Little Red Rooster
08. Tennessee Jed
09. Far From Me
10. Lazy Lightnin'
11. Supplication
12. Deal

Set 2
-----
01. Greatest Story Ever Told
02. Uncle John's Band
03. Lost Sailor
04. Saint of Circumstance
05. Comes a Time
06. Truckin'
07. Drums > Space
08. The Other One
09. Stella Blue
10. I Need a Miracle
11. Good Lovin'

Encore
------
12. Brokedown Palace
13. White Rabbit


Thanks to Dark Star Orchestra and the staff at the Roseland Theater for allowing the evening to be recorded.


Media Files:
http://bt.etree.org/download.php/591379/dso2017-02-10.mk4.flac24.torrent




Dark Star Orchestra, 2017-02-10, Roseland Theater, Portland, OR (** Neumann SKM-184 ** 24 bit)

2017-02-20T02:36:28

Dark Star Orchestra
The Roseland Theater
Portland, OR
February 10, 2017

Source: Neumann SKM-184 > DR-680 (24 Bit,48kHz)
Format: 24-bit, 48 kHz
Recorded and transferred by Rick Odeen

This setlist is a re-creation of the Grateful Dead, August 30, 1980, Capital Centre, Landover, MD

Set 1
-----
01. Alabama Getaway
02. Promised Land
03. They Love Each Other
04. Mama Tried
05. Mexicali Blues
06. Althea
07. Little Red Rooster
08. Tennessee Jed
09. Far From Me
10. Lazy Lightnin'
11. Supplication
12. Deal

Set 2
-----
01. Greatest Story Ever Told
02. Uncle John's Band
03. Lost Sailor
04. Saint of Circumstance
05. Comes a Time
06. Truckin'
07. Drums > Space
08. The Other One
09. Stella Blue
10. I Need a Miracle
11. Good Lovin'

Encore
------
12. Brokedown Palace
13. White Rabbit


Thanks to Dark Star Orchestra and the staff at the Roseland Theater for allowing the evening to be recorded.


Media Files:
http://bt.etree.org/download.php/591378/dso2017-02-10.km184.flac24.torrent




Drive-By Truckers - Feb. 18, 2017 - 40 Watt, Athens, GA (DPA 4023)

2017-02-20T01:22:25

The Drive-By Truckers
18 February 2017 (Saturday)
40 Watt Club
Athens, GA

Source: DPA 4023 > Zoom F8 (24/48)
Transfer: F8 > iMac. Tracked and resampled to 16-bit via Sound Studio, FLAC via xACT

Recorded by Alex Leary

01. Ramon Casiano
02. That Man I Shot
03. 72 (This Highway’s Mean)
04. Ever South
05. Made Up English Oceans
06. Goode’s Field Road
07. Women Without Whiskey
08. The Tough Sell > Troglodyte
09. Filthy and Fried
10. This Fucking Job
11. Kinky Hypocrite > Gimme Some Truth
12. Once They Banned Imagine
13. World Of Hurt
14. Gravity’s Gone
15. 18 Wheels of Love
16. Surrender Under Protest
17. Lookout Mountain
18. Marry Me
19. Let There Be Rock
20. Shut Your Mouth and Get Your Ass On The Plane
21. Angels and Fuselage
22. Zip City
23. People Who Died *

Notes:

— Third of three-night, sold-out homecoming stand at The 40 Watt. The Hernies opened.
— * David Barbe and DBT crew members joined the band.
— Thanks to Mark Lynn for clamp space.


Media Files:
http://bt.etree.org/download.php/591376/dbt2017-02-18.flac16.torrent




Infamous Stringdusters 2017-01-22 Infinity Hall, Hartford CT flac16

2017-02-20T00:53:06

Infamous Stringdusters
Infinity Hall
Hartford, Connecticut
January 22, 2017 - Sunday

AKG 4000C > Tascam DR-40 at Soundboard
Mastered in WaveLab 6.01 with iZotope Ozone 5.0
Recorded by Casey Coniff and Mastered by Bill Koucky
Green Mountain Bros.

** 16 Bit **

Disc 1
1st Set:
1. You Can't Stop The Changes
2. Big River
3. Goodbye Liza Jane
4. Steam Powered Areoplane >
5. The Place I Call Home
6. All The Same
7. 1901: A Canyon Odyssey
8. Vertigo
9. Gentle On My Mind
10. Well, Well
2nd Set:
11. Once You're Gone
Disc 2
1. Soul Searching
2. Winds Of Change
3. Won't Be Coming Back
4. My Destination
5. Scarlet Begonias
6. Middlefork
7. Maxwell
8. Let Me Know
9. One Love
10. I Run To You
11. Sirens
12. Let It Go
13. Not Fade Away
14. encore break
Encore:
15. This Weary Heart You Stole Away


Media Files:
http://bt.etree.org/download.php/591375/is2017-01-22.akg4000.gmb.flac16.torrent




Infamous Stringdusters 2017-01-22 Infinity Hall, Hartford CT flac24

2017-02-20T00:51:47

Infamous Stringdusters
Infinity Hall
Hartford, Connecticut
January 22, 2017 - Sunday

AKG 4000C > Tascam DR-40 at Soundboard
Mastered in WaveLab 6.01 with iZotope Ozone 5.0
Recorded by Casey Coniff and Mastered by Bill Koucky
Green Mountain Bros.

** 24 Bit **

1st Set:

1. You Can't Stop The Changes
2. Big River
3. Goodbye Liza Jane
4. Steam Powered Areoplane >
5. The Place I Call Home
6. All The Same
7. 1901: A Canyon Odyssey
8. Vertigo
9. Gentle On My Mind
10. Well, Well

2nd Set:

1. Once You're Gone
2. Soul Searching
3. Winds Of Change
4. Won't Be Coming Back
5. My Destination
6. Scarlet Begonias
7. Middlefork
8. Maxwell
9. Let Me Know
10. One Love
11. I Run To You
12. Sirens
13. Let It Go
14. Not Fade Away
15. encore break
Encore:
16. This Weary Heart You Stole Away


Media Files:
http://bt.etree.org/download.php/591374/is2017-01-22.akg4000.gmb.flac24.torrent




Trey Anastasio (70 Volt Parade) 11-11-05

2017-02-20T00:32:42

Trey Anastasio Band

Utica Memorial Auditorium
Utica, NY
Friday, November 11, 2005

Source: AKG C480b (CK63) > Edirol UA-5 (BM2) > Nomad Jukebox 3

Mastering: WAV > Adobe Audition 1.5 > WAV > Totalrecorder 5.2 >
WAV > Flac Frontend 1.7.1 > FLAC


Disc 1: (65:20)

101. Countdown to Utica *
102. Mr. Completely
103. Spin
104. Drifting
105. Dark And Down
106. Night Speaks To A Woman
107. Band Introductions
108. Shine


Disc 2: (66:09)

201. Money, Love, and Change
202. Push On 'til the Day
203. Come As Melody
204. Access Me 1
205. The Divided Sky 1,2
206. Get Back On The Train 1


Disc 3: (43:17)

301. Heavy Things 1
302. Bathtub Gin > 1
303. Ghost 1
304. Boogie On Reggae Woman 3


NOTES:

* Balloons were dropped from the ceiling. Trey put a time clock
on his website as count down to this show; and this show only.
To commemorate the last Utica show (10/25/02), where the balcony
almost collapsed from all the dancing.

1 Trey on acoustic guitar, Mike Gordon on electric bass
2 Jon Fishman on cymbal
3 Mike Gordon - bass; Jon Fishman - drums
Tony Hall - bass; Skeeto Valdez - percussion

Page McConnell was not present.

No encore due City Ordinance of 11:30pm.

70 Volt Parade project


Taped, transferred, & edited by Spyder9 Studios (dnolanjr@yahoo.com)
Released November 13, 2005

Location: Back of the floor, in the taperssection,
next to the SBD, right of DFC


The Band:

Trey Anastasio vocals, guitar
Tony Hall bass
Les Hall guitar, keyboard, synthesizer
Skeeto Valdez drums, percussion
Ray Paczkowski keyboard
Jennifer Hartswick backing Vocals
Christina Durfee backing vocals

Special Guests:

Mike Gordon vocals, bass
Jon Fishman drums, cymbal


Media Files:
http://bt.etree.org/download.php/591373/trey05-11-11.torrent




The Wood Brothers, St. Rose, Albany, NY 2-3-2017 (Neumann U89)

2017-02-19T23:54:54

Wood Brothers
Massry Center
The College of Saint Rose
Albany, NY
2-3-2017

Set List:
01 Stop That Train
02 Two Places
03 Keep Me Around
04 I Got Loaded
05 Smoke Ring Halo
06 Tried and Tempted
07 Snake Eyes
08 American Heartache
09 Touch of Your Hand
10 Blue & Green
11 Bass solo> One More Day> banter
12 The Muse *
13 Sing About It * +
14 Wastin' My Mind
15 Postcards From Hell
16 Singing to Strangers
17 Honey Jar
18 encore break
19 Luckiest Man
20 Ophelia

* with All performers using one "Big" Mic
+ With the T Sisters

Personell:
Oliver Wood: Guitars Vocals
Chris Wood : Bass, Vocals, Harmonica
Jano Rix: Percussions, shitar, vocals, keyboards

Source:
(FOB/DFC) Neumann U89i (Hyper, DINA)> AETA PSP-3> Zoom F8 (24/48) on a SDHC card.

Processing:
SDHC card> Mac Mini> Audacity> Fission (flac 16/44.1)

Recorded by:
Ed Guidry (tufflitestudios@yahoo.com).



Media Files:
http://bt.etree.org/download.php/591371/woodbros2017-02-03(flac16) .torrent




Michelangelo Carubba & Friends 02/17/2017 American Beauty, New York, NY (SBD + Schoeps cmc622 - 16 bit)

2017-02-19T23:47:18

Michelangelo Carubba & Friends 02/17/2017 American Beauty, New York, NY

Source 1: Schoeps cmc622 (On Stage DFC, Wide ORTF) -> Sonosax SX-M2 -> Sound Devices 788T -> WAV (@24/96);
Source 2: SBD -> Sound Devices 788T -> WAV (24/96);

Transfer: WAVs -> SoundForge Pro 11.0 (Time Align, normalize) -> Vegas Pro 13.0 (mix/render) -> SoundForge Pro 11.0 (EQ, normalize, fades, 96->44.1 iZotope 64-Bit SRC; 24->16 bit iZotope MBIT+ Dither) -> CDWav -> FLAC

Recorded, edited, mixed and mastered by Eric McRoberts 02/18-19/2017 - FOH mix by Marco Chiok

Set One:
01. intro/crowd
02. Fool's Paradise
03. You Don't Know Nothing About Love
04. King Of Pain
05. I Know You, I Live You
06. Lovely Day *
07. It's A Man's, Man's, Man's World
08. Proud Mary

Set Two:
01. intro/crowd
02. All I Really Want
03. You Oughta Know
04. Perfect
05. Hand In My Pocket
06. Right Through You
07. Forgiven
08. You Learn
09. Head Over Feet
10. Mary Jane
11. Ironic
12. Not The Doctor
13. Wake Up

Michelangelo Carubba - Drums (Turkuaz)
Jennifer Hartswick - Trumpet / Vox (Trey Anastasio Band)
Shira Elias - Vox (Turkuaz)
Sammi Garett - Vox (Turkuaz)
Mayteana Morales - Vox (Pimps Of Joytime)
Sasha Brown - Guitar (Sister Sparrow & the Dirty Birds)
Craig Brodhead - Guitar (Turkuaz)
Nate Edgar - Bass (Nth Power)

* w/ DJ Williams - Guitar (Karl Denson's Tiny Universe, DJ Williams Shots Fired)

The show was billed as An All-Star Tribute To Alanis Morissette's "Jagged Little Pill" which was a benefit show for Planned Parenthood hosted by Live For Live Music. The second set featured the Jagged Little Pill album.


Media Files:
http://bt.etree.org/download.php/591370/michelangelocarubba2017-02-17.cmc622.sbd.matrix.flac16.torrent




Michelangelo Carubba & Friends 02/17/2017 American Beauty, New York, NY (SBD + Schoeps cmc622 - 24 bit)

2017-02-19T23:47:14

Michelangelo Carubba & Friends 02/17/2017 American Beauty, New York, NY

Source 1: Schoeps cmc622 (On Stage DFC, Wide ORTF) -> Sonosax SX-M2 -> Sound Devices 788T -> WAV (@24/96);
Source 2: SBD -> Sound Devices 788T -> WAV (24/96);

Transfer: WAVs -> SoundForge Pro 11.0 (Time Align, normalize) -> Vegas Pro 13.0 (mix/render) -> SoundForge Pro 11.0 (EQ, normalize, fades) -> CDWav -> FLAC

Recorded, edited, mixed and mastered by Eric McRoberts 02/18-19/2017 - FOH mix by Marco Chiok

Set One:
01. intro/crowd
02. Fool's Paradise
03. You Don't Know Nothing About Love
04. King Of Pain
05. I Know You, I Live You
06. Lovely Day *
07. It's A Man's, Man's, Man's World
08. Proud Mary

Set Two:
01. intro/crowd
02. All I Really Want
03. You Oughta Know
04. Perfect
05. Hand In My Pocket
06. Right Through You
07. Forgiven
08. You Learn
09. Head Over Feet
10. Mary Jane
11. Ironic
12. Not The Doctor
13. Wake Up

Michelangelo Carubba - Drums (Turkuaz)
Jennifer Hartswick - Trumpet / Vox (Trey Anastasio Band)
Shira Elias - Vox (Turkuaz)
Sammi Garett - Vox (Turkuaz)
Mayteana Morales - Vox (Pimps Of Joytime)
Sasha Brown - Guitar (Sister Sparrow & the Dirty Birds)
Craig Brodhead - Guitar (Turkuaz)
Nate Edgar - Bass (Nth Power)

* w/ DJ Williams - Guitar (Karl Denson's Tiny Universe, DJ Williams Shots Fired)

The show was billed as An All-Star Tribute To Alanis Morissette's "Jagged Little Pill" which was a benefit show for Planned Parenthood hosted by Live For Live Music. The second set featured the Jagged Little Pill album.


Media Files:
http://bt.etree.org/download.php/591369/michelangelocarubba2017-02-17.cmc622.sbd.matrix.flac24.torrent




bwrw1991-12-21.sbd.miller.flac16

2017-02-19T23:26:00

Bob Weir & Rob Wasserman - December 21, 1991
Front Street - San Rafael, CA

Recording Info:
SBD > Dat Master (Panasonic SV-3800/44.1k)

Transfer Info:
Dat Master (Sony PCM-R500) > Sound Devices 744T > Samplitude Pro X3 Suite > FLAC
(1 Disc Audio / 1 Disc FLAC)

All Transfers and Mastering By Charlie Miller
charliemiller87@earthlink.net
February 18, 2017

Notes:
-- Christmas Party

Setlist:
01 - Take Me To The River
02 - Fever
03 - Queen Jane Approximately
04 - Looks Like Rain
05 - Bass Solo
06 - Youngblood


SHNTOOL OUTPUT:
length expanded size cdr WAVE problems fmt ratio filename
4:17.16 45372476 B --- -- ---xx flac 0.4634 01 Take Me To The River.flac
5:00.04 52929452 B --- -- ---xx flac 0.3777 02 Fever.flac
4:51.12 51360668 B --- -- ---xx flac 0.4530 03 Queen Jane Approxiamtely.flac
6:18.39 66770972 B --- -- ---xx flac 0.4480 04 Looks Like Rain.flac
4:00.22 42387788 B --- -- ---xx flac 0.3431 05 Bass Solo.flac
3:23.60 35950364 B --- -- ---xx flac 0.4731 06 Youngblood.flac
27:51.03 294771720 B 0.4266 (6 files)


Media Files:
http://bt.etree.org/download.php/591368/bwrw1991-12-21.sbd.miller.flac16.torrent




Funktional Flow, 2011-12-17, The Tralf, Buffalo, NY

2017-02-19T22:45:56

Funktional Flow
The Tralf
Buffalo, NY
2011-12-17


Source: M-Audio Pulsar II's -> ART USB DualPre -> Sony PCM-M10 (LPCM 44.10kHz/16bit)
Location: 8' high, Rt/Center Stage (approx 40' back)
Transfer: Sony PCM-M10 > Audacity (fades, amplify) > Trader's Little Helper (wav > flac)
Taped by ikepgh
ikepgh@yahoo.com

01. Track 01
02. Track 02
03. Stage Banter
04. Track 04
05. Track 05
06. Track 06
07. Stage Banter
08. Track 08
09. Track 09
10. Track 10
11. Track 11
12. Stage Banter
13. Life During Wartime [1]

Notes:
Opened for The Maniacs
Setlist assistance is appreciated...
[1] Talking Heads cover


Media Files:
http://bt.etree.org/download.php/591366/2011-12-17 Funktional Flow Buffalo.torrent




Bob Weir & Rob Wasserman (Acoustic) 1989-09-10 Great Woods Mansfield, MA Sennheiser 421 > Sony D6 > MC *New To Circulation?*

2017-02-19T21:48:45

Bob Weir & Rob Wasserman (Acoustic)
1989-09-10
Great Woods
Mansfield, MA

Sennheiser 421 > Sony D6 > MC > Sony TC-WE 405 > Line Out > MacBook Pro > Adobe Audition > Flac > xACT 2.38

Recorded By John Rivers (Royal Flush Recordings)
Mastered By Scott Medeiros


01 Walking Blues
02 Festival
03 Twilight Time —>
04 KC Moan
05 Desolation Row
06 Patriots Score Banter
07 Looks Like Rain
08 Easy To Slip
09 Wasserman Bass Solo
10 Victim Or The Crime
11 Throwing Stones ^


^(Tape Flip)

Bob Weir / Guitar / Vox
Rob Wasserman / Bass

(Opened for the Jerry Garcia Band)

Check me out on Youtube and please Subscribe
https://www.youtube.com/channel/UCbLDkrWkBjNDP6-qzikPN5g

Please check out my recording page on Facebook and give it a like !
https://www.facebook.com/pages/MuzikWize-Live-Recordings/681543778579073?ref=hl

Here's a link to everything you may have missed
https://archive.org/details/@scottmedeiros


Media Files:
http://bt.etree.org/download.php/591365/BW&RW.torrent




Max Creek 2017-02-18 Bearsville Theater Woodstock, NY Telefunken M-60 (Balcony) + SBD > Tascam Dr-680 MKI (16/44.1)

2017-02-19T19:31:48

Max Creek
2017-02-18
Bearsville Theater
Woodstock, NY

Telefunken M-60 (Balcony) + SBD > Tascam Dr-680 MKI (16/44.1) > SDHC > MacBook Pro > Adobe Audition > Flac > xACT
Recorded & Mastered By Scott Medeiros

Set One:

01 You Write The Book —>
02 Big Boat
03 I Want You To Know
04 Sweet Wanomi
05 Feels Like Falling
06 Tangled Up In Blue
07 I.C.U —>
08 Helter Skelter

Set Two:

09 Don’t Do It (For Levon Helm)
10 Thoughts
11 Snapchat Banter
12 Motown
13 Sailin’ Shoes —>
14 Sneakin' Sally Through The Alley —>
15 The Field —>
16 Down In The Jungle
17 Walking In Jerusalem
18 Going Down The Road Feeling Bad

Encore:

19 Just A Rose


Max Creek Is:
http://maxcreek.com/

Scott Murawski / Guitar / Vox
John Rider / Bass / Vox
Mark Mercier / Keys / Vox
Jamemurrell Stanley / Percussion
Bill Carbone / Drums / Vox

Stephen DesJardins - FOH
Mike Meresca - Monitors

As always thanks to the band for the guest spot…



Check me out on Youtube and please Subscribe
https://www.youtube.com/channel/UCbLDkrWkBjNDP6-qzikPN5g

Please check out my recording page on Facebook and give it a like !
https://www.facebook.com/pages/MuzikWize-Live-Recordings/681543778579073?ref=hl

Here's a link to everything you may have missed
https://archive.org/details/@scottmedeiros


Media Files:
http://bt.etree.org/download.php/591364/MC.torrent




Sugar Blood Jinx 2017-01-28 Toad - Cambridge, MA -dpa4023>V3>R44 -flac2448

2017-02-19T17:29:00

Sugar Blood Jinx
Sat. January 28, 2017
Toad
Cambridge, MA


source: dpa 4023 > Lunatec V3 > Edirol R-44 > WAV (24/48k)
transfer: wav > Audacity > wav (24/48k) > xACT > flac8

tape/transfer - corey the groundhog (coreythegroundhogATgmailDOTcom)



//set two (22:59)

01.
02.
03.
04.
05.
06.


set three (38:12)

01.
02.
03.
04. banter
05.
06.
07. banter
08.
09. banter
10.
11. banter
12.
13. banter
14.


Missing beginning of show


Eric Waxwood - Guitar & Vocals
Matt Murphy - Bass
Scott Pittman - Drums
Sonny Jim Clifford - Harmonica & Percussion

http://sugarbloodjinx.com


Media Files:
http://bt.etree.org/download.php/591363/sugarbloodjinx2017-01-28aud2448.torrent




North Mississippi Allstars | 1999-09-16 | Proud Larry's - Oxford, MS | SBD (prev. uncirculated)

2017-02-19T15:28:01

North Mississippi Allstars
1999-09-16
Proud Larry's
Oxford, MS

Source: SBD > DAP1
Transfer: DAP1 > Edirol UA5 > Felt Tip's Sound Studio
Post-transfer: WAV > Wavelab v6.10 (edits) > WAV > CD Wave v1.98 (tracking) > TLH > FLAC(8)
Tagging: foobar2000
Recorded by: DeMatt Harkins
Post-transfer & tracking: vanark (vanarkATgmailDOTcom)

Set list:
01. Intro > Shimmy She Wobble
02. Down In Mississippi
03. Preachin' Blues >
04. Station Blues > Preachin' Blues
05. I'm In Jail
06. I'm Done
07. Baby, What's Wrong
08. Lord Have Mercy
09. Pink Champagne
10. Drinking Muddy Water
11. Goin' To Brownsville
12. Drop Down Mama
13. Coal Black Mattie >
14. Skinny Woman > Drums >
15. Coal Black Mattie
16. Jam*
17. Crosscut Saw*
18. Shake Your Moneymaker

* with guest (Michael ??) on bass, vocals

Band Personnel:
Luther Dickinson: guitar, vocals
Cody Dickinson: drums
Chris Chew: bass, vocals

Share Freely and Support Live Music


Media Files:
http://bt.etree.org/download.php/591362/nma1999-09-16.sbd.flac16.torrent




The London Souls 2017-02-04 Ardmore Music Hall Ardmore, Pa (SBD + Aud Matrix)

2017-02-19T12:57:52

The London Souls
Ardmore Music Hall
Ardmore, PA
02-04-2017

*********************************************************************************************************************************************
Source 1: MBHO 603A's KA 500 > Tascam DR-60D > CDWav (tracking) > Trader's Little Helper > FLAC 8 > Deluge
Source 2: Soundboard Patch > Tascam DR-60D
Location: Dead Center at Soundboard about 35 Ft Back
Recorded by: Keith Karaffa (aka Non-Fiction) (a.k.a. LondonSoulsHistorian)
Mastered by: Keith Karaffa (LondonSoulsHistorian)
*********************************************************************************************************************************************

Set

01) Honey
02) Old Country Road
03) Certain Appeal
04) Hello Philly
05) All Tied Down
06) The River >
07) Just Be Thankful > She's So Mad
08) talk #2
09) Bobby James > Tennessee Jed
10) Big Gumbo & Sticky Dog talk >
11) The Sound >
12) Sweet Thang
13) Steady Are You Ready? >
14) Beggin You Please


Running Time 61:54

Tash Neal - Guitar + Vocals
Chris St. Hilaire - Drums + Vocals


Media Files:
http://bt.etree.org/download.php/591360/The Londo Souls 2-4-17 FLAC.torrent




Umphrey's McGee Asheville Civic Center Asheville, North Carolina 2/18/2017 (Schoeps CCM4V'S FOB)

2017-02-19T08:18:38

Umphrey's McGee Asheville Civic Center Asheville, North Carolina 2/18/2017 Source: Schoeps CCM4V's>Lunatec V2>Benchmark AD2K> Sound Devices 722 (24/44) FOB/DFC/KFC/ZFC/AARP 48' From Stage, 8' High DSP: Sound Devices 722>Sound Forge 10.0>CD Wave>flac(16) ID3 Tagged In Foobar 2000 Recorded By: Z-Man Seeded By: Z-Man Disc I 1st Set 01 Gurgle > 02 Higgins 03 Make It Right 04 In The Kitchen > 05 White Man's Moccasins 06 Puppet String 07 *#Can't You See Disc II 2nd Set 01 Mulche's Oddysey 02 Hajimemashite 03 Jajunk > 04 Miami Virtue > 05 Remind Me > 06 ? 07 Professor Wormbog 08 Much Obliged > 09 In The Kitchen > 10 @Jajunk Encore: 11 Banter 12 Tom Sawyer * With Paul Hoffman On Mandolin And Vocals # With Anders Beck On Dobro @ With Top Gun Tease um2017-02-18d01t01.flac:8dbcb35b357625adf1f3f79329c8d147 um2017-02-18d01t02.flac:3c34fd7227f27c615dc52b9decc9c434 um2017-02-18d01t03.flac:f3bb9e1b733f4a0dd87a31304701fad1 um2017-02-18d01t04.flac:7ec7ed9c3cbaeb62f0af2f79ba56a7af um2017-02-18d01t05.flac:8806c141d2fa47953f30829a51bbc31b um2017-02-18d01t06.flac:ad31790f862991594345cdce88eefe3c um2017-02-18d01t07.flac:948b91bca88b9e04c5be51b7fa45fce6 um2017-02-18d02t01.flac:fb0f75b7332d6f614c114992ffdedfef um2017-02-18d02t02.flac:aff4e58285619073c3e0939c91607343 um2017-02-18d02t03.flac:57161395ffbda732de1c01180e1192d9 um2017-02-18d02t04.flac:83f85676e2dabf0b6690fec62c6699b2 um2017-02-18d02t05.flac:075790704b44e13c1ce8bb3633e4f50c um2017-02-18d02t06.flac:88c98fe2a7315a58f015c8d57ccf9e5b um2017-02-18d02t07.flac:487ba1ac9bf09e262d92b6252fd27a37 um2017-02-18d02t08.flac:a13f7eccdf87bfb8954e55648c0a518f um2017-02-18d02t09.flac:8aafbd4054665a04940e823129ae810d um2017-02-18d02t10.flac:1b1082c1f2d5d68b16475ca5269c4384 um2017-02-18d02t11.flac:6b41173cf33f3de23e57069353e0d0b9 um2017-02-18d02t12.flac:0b8c71c968edcccc9912c927d231f042 length expanded size cdr WAVE problems fmt ratio filename 2:41.31 28473356 B --- -- ---xx flac 0.5639 um2017-02-18d01t01.flac 12:40.45 134169884 B --- -- ---xx flac 0.5079 um2017-02-18d01t02.flac 7:21.08 77811260 B --- -- ---xx flac 0.5285 um2017-02-18d01t03.flac 13:39.07 144488108 B --- -- ---xx flac 0.4810 um2017-02-18d01t04.flac 7:32.25 79791644 B --- -- ---xx flac 0.4718 um2017-02-18d01t05.flac 17:26.20 184561484 B --- -- ---xx flac 0.4906 um2017-02-18d01t06.flac 9:10.03 97027100 B --- -- ---xx flac 0.4857 um2017-02-18d01t07.flac 11:54.19 125994332 B --- -- ---xx flac 0.4988 um2017-02-18d02t01.flac 5:28.02 57863948 B --- -- ---xx flac 0.4818 um2017-02-18d02t02.flac 9:17.46 98363036 B --- -- ---xx flac 0.4861 um2017-02-18d02t03.flac 7:57.73 84314540 B --- -- ---xx flac 0.4834 um2017-02-18d02t04.flac 6:53.11 72879116 B --- -- ---xx flac 0.4828 um2017-02-18d02t05.flac 5:35.66 59249276 B --- -- ---xx flac 0.4896 um2017-02-18d02t06.flac 6:25.02 67918748 B --- -- ---xx flac 0.4584 um2017-02-18d02t07.flac 5:55.28 62687900 B --- -- ---xx flac 0.4731 um2017-02-18d02t08.flac 1:24.66 14972876 B --- -- ---xx flac 0.4893 um2017-02-18d02t0[...]


Media Files:
http://bt.etree.org/download.php/591359/um2017-02-18.flac16.torrent




jg1986-11-22.jgbwmh.aud.137843.flac1644

2017-02-19T02:26:36

JERRY GARCIA & FRIENDS
Warfield Theater
San Francisco CA
11-22-1986

Jane Dornacker Memorial Benefit
Jerry Garcia, Bob Weir, Mickey Hart

01 Deep Elem Blues
02 Throwing Stones
03 Ripple

Unknown AUD kindly provided by wk & http://jgmf.blogspot.com/

Transfer: Maxell XLII > Nakamichi CR-5A > Edirol FA-66 > Wavelab 2448 >
R8Brain > CD-Wave > TLH > FLAC 1644 tagged. Transfer by Andrew F. 02/2017

length expanded size cdr WAVE problems fmt ratio filename
5:28.59 57998012 B --- -- ---xx flac 0.5715 jg1986-11-22t01.flac
8:17.58 87807260 B --- -- ---xx flac 0.5680 jg1986-11-22t02.flac
4:26.39 47014172 B --- -- ---xx flac 0.5722 jg1986-11-22t03.flac
18:13.06 192819444 B 0.5701 (3 files)

No errors occured.


Media Files:
http://bt.etree.org/download.php/591356/jg1986-11-22.jgbwmh.aud.137843.flac1644.torrent